.
Авторизация | Регистрация
Хочешь лучшие торренты? Добавь свой email!
Добавить

Торрент скачать бесплатно

» » Jillian Michaels | Killer Body (2015) DVDRip [EN] торрент скачать бесплатно




    Jillian Michaels | Killer Body (2015) DVDRip [EN] торрент скачать бесплатно

    Опубликовал: Админ | Дата: 20-10-2016, 04:00 | Просмотров: 76

    Автор (режиссер): Jillian Michaels
    Производство: США
    Жанр: Фитнес

    Описание

    Если Вы хотите измениться, не просто измениться, а убийственно измениться - этот новый диск Джиллиан для Вас! Вы бросите вызов каждой части тела, работая с каждой группой мышц и добиваясь максимального результата! Убийственное тело - это большое обещание и эта тренировка помогает его исполнить.
    Продолжительность: 01: 43: 00
    Качество видео: DVDRip
    Перевод: Отсутствует
    Язык озвучки: Английский
    Видео: Xvid, 720x400, ~1 823 Kbps
    Аудио: MP3, 2 ch, 192 Kbps, CBR

    Killer Body_2 Low body.avi
    Format : AVI
    Format/Info : Audio Video Interleave
    File size : 528 MiB
    Duration : 36 min 26 s
    Overall bit rate : 2 025 kb/s
    Movie name : K
    Writing application : V
    Copyright : O
    Video
    ID : 0
    Format : MPEG-4 Visual
    Format profile : Advanced Simple@L5
    Format settings, BVOP : 1
    Format settings, QPel : No
    Format settings, GMC : No warppoints
    Format settings, Matrix : Custom
    Codec ID : XVID
    Codec ID/Hint : XviD
    Duration : 36 min 26 s
    Bit rate : 1 823 kb/s
    Width : 720 pixels
    Height : 400 pixels
    Display aspect ratio : 16: 9
    Frame rate : 23.976 (23976/1000) FPS
    Color space : YUV
    Chroma subsampling : 4: 2: 0
    Bit depth : 8 bits
    Scan type : Progressive
    Compression mode : Lossy
    Bits/(Pixel*Frame) : 0.264
    Stream size : 475 MiB (90%)
    Writing library : XviD 73
    Audio
    ID : 1
    Format : AC-3
    Format/Info : Audio Coding 3
    Mode extension : CM (complete main)
    Format settings, Endianness : Big
    Codec ID : 2000
    Duration : 36 min 25 s
    Bit rate mode : Constant
    Bit rate : 192 kb/s
    Channel(s) : 2 channels
    Channel positions : Front: L R
    Sampling rate : 48.0 kHz
    Frame rate : 31.250 FPS (1536 spf)
    Compression mode : Lossy
    Stream size : 50.0 MiB (9%)
    Alignment : Split accross interleaves
    Interleave, duration : 42 ms (1.00 video frame)
    Interleave, preload duratio : 500 ms


    Скриншоты для ознакомления




    Jillian Michaels | Killer Body (2015) DVDRip [EN]
    Рейтинг →
     (голосов: 1, оценка 4/5, голосовать можно 1 раз )

    Другие торренты по теме:

  • Jillian Michaels | Killer Abs (2012) DVDRip [EN, POR]
  • Jillian Michaels | BodyShred (2015) DVDRip [H.264] [EN]
  • Jillian Michaels | Body Revolution (2012) DVDRip [EN]
  • Jillian Michaels | Killer Buns and Thighs (2011) DVDRip [EN]
  • Jillian Michaels | Beginner Shred (2014) DVDRip [H.264] [EN]
  • Jillian Michaels | Shred-It With Weights (2010) DVDRip [RU, EN]
  • Jillian Michaels | 10 Minute Body Transformation (2016) WEBRip [H.264 / 720p] [EN]
  • Jillian Michaels | Killer Arms and Back (2015) WEBRip [H.264 / 720p] [EN]


    • Комментарии (0):

      Информация

      Информация

        Посетители, находящиеся в группе Гости, не могут оставлять комментарии в данной новости.

        ↓ Меню




        ↓ Опрос

        Вы добавили сайт в закладки?
        Да
        Нет


        Top 10 за месяц (Книги)

        Лора Вандеркам | Книга о потерянном времени. У вас больше возможностей, чем вы думаете (2015) [PDF, EPUB, FB2]

        (скачиваний: 31)
        Геннадий Кибардин | Кофе лечит: головную боль, спазм кровеносных сосудов, простуду, астму (2017) [FB2]

        (скачиваний: 30)
        Джозеф Меркола | Клетка «на диете». Научное открытие о влиянии жиров на мышление, физическую активность и обмен веществ (2018) [PDF, FB2, RTF]

        (скачиваний: 30)
        Майкл Фоссел | Теломераза. Как сохранить молодость, укрепить здоровье и увеличить продолжительность жизни (2017) [FB2]

        (скачиваний: 28)
        Pharmama | В аптеке. Записки фармацевта о рисках и побочных действиях (2017) [FB2]

        (скачиваний: 27)
        П.П. Гайденко, В.В. Петров (ред.) | Философия природы в античности и в средние века (2000) [PDF, DJVU]

        (скачиваний: 24)
        Владимир Иванович Даль | Иллюстрированный толковый словарь русского языка (2007) [PDF, DJVU]

        (скачиваний: 21)
        Константин Душенко (сост.) | Настольный словарь цитат (2018) [FB2]

        (скачиваний: 19)
        Газета | Тайны ХХ века. Секретные архивы №1 (январь 2018) [PDF]

        (скачиваний: 18)
        Шарон Бегли | Не могу остановиться. Откуда берутся навязчивые состояния и как от них избавиться (2018) [PDF]

        (скачиваний: 18)