.
Авторизация | Регистрация
Хочешь лучшие торренты? Добавь свой email!
Добавить

Торрент скачать бесплатно

» » Александр Заморин, Вадим Шемет, Софи Лебедева | Технологии фотомастерства 3.0 (2017) PCRec торрент скачать бесплатно




    Александр Заморин, Вадим Шемет, Софи Лебедева | Технологии фотомастерства 3.0 (2017) PCRec торрент скачать бесплатно

    Опубликовал: Админ | Дата: 24-06-2017, 05:00 | Просмотров: 20

    Автор (режиссер): Александр Заморин, Вадим Шемет, Софи Лебедева
    Жанр: Обучающее видео

    Описание

    В этом курсе вы познаете сразу все грани фотографии (техника, сюжет, композиция, свет) и не упустите важных деталей, без которых невозможна гармоничная фотография.
    Это самый большой курс из всех, что мы когда-либо записывали. Мы вложили в него весь наш опыт и знания, чтобы вы использовали эту выжимку в своей практике и не теряли лишнего времени.
    На курсе Вы научитесь:
    Использовать все творческие возможности вашей камеры, не важно какая у вас марка Canon, Nikon или Sony
    Видеть оригинальные сюжеты для фотографий даже в самых обычных местах
    Управлять вниманием и настроением зрителя, используя самые хитрые законы комозиции в своих фотография
    Уверенно снимать в ручных режимах фотокамеры, получая качесвенные портреты, предметку или фотографии природы
    Пользоваться выносными вспышками и прочим дополнительным снаряжением
    Самостоятельно выставлять свет для фотографий, правильно использовать солнечный свет и подручные светильники, создавая необычные художественные фотографии
    Создавать сильные работы со смыслом, а не просто картинки
    Продолжительность: 14: 44: 16
    Качество видео: PCRec
    Видео: AVC/H.264, 1280x720, ~4 449 kb/s
    Аудио: AAC, 2 ch, 512 kb/s

    General
    Complete name : E: torrentsZamorin_Tehnolog_fotomaster_3.0Технологии фотомастерства 3.01_Как выбрать правильный фотоаппарат .mp4
    Format : MPEG-4
    Format profile : Base Media
    Codec ID : isom (isom/iso2/avc1/mp41)
    File size : 1.11 GiB
    Duration : 32 min 2 s
    Overall bit rate : 4 965 kb/s
    Encoded date : UTC 2017-02-21 16: 38: 50
    Tagged date : UTC 2017-02-21 16: 38: 50
    Writing application : Lavf57.56.100
    Video
    ID : 1
    Format : AVC
    Format/Info : Advanced Video Codec
    Format profile : Main@L3.1
    Format settings, CABAC : Yes
    Format settings, ReFrames : 2 frames
    Codec ID : avc1
    Codec ID/Info : Advanced Video Coding
    Duration : 32 min 2 s
    Bit rate : 4 449 kb/s
    Width : 1 280 pixels
    Height : 720 pixels
    Display aspect ratio : 16: 9
    Frame rate mode : Constant
    Frame rate : 23.976 (24000/1001) FPS
    Color space : YUV
    Chroma subsampling : 4: 2: 0
    Bit depth : 8 bits
    Scan type : Progressive
    Bits/(Pixel*Frame) : 0.201
    Stream size : 1 020 MiB (90%)
    Language : English
    Encoded date : UTC 2017-02-21 16: 38: 50
    Tagged date : UTC 2017-02-21 16: 38: 50
    Audio
    ID : 2
    Format : AAC
    Format/Info : Advanced Audio Codec
    Format profile : LC
    Codec ID : 40
    Duration : 32 min 2 s
    Bit rate mode : Constant
    Bit rate : 512 kb/s
    Channel(s) : 2 channels
    Channel positions : Front: L R
    Sampling rate : 48.0 kHz
    Frame rate : 46.875 FPS (1024 spf)
    Compression mode : Lossy
    Stream size : 117 MiB (10%)


    Скриншоты для ознакомления




    Александр Заморин, Вадим Шемет, Софи Лебедева | Технологии фотомастерства 3.0 (2017) PCRec
    Рейтинг →
     (голосов: 1, оценка 3/5, голосовать можно 1 раз )

    Другие торренты по теме:

  • Александр Заморин | От заката до рассвета (2014) PCRec скачать через торрент бесплатно
  • Александр Заморин | Мой первый зеркальный Canon (2012) PCRec
  • Александр Заморин | Ретушёр 2015 - Экспертный уровень (2014) PCRec скачать через торрент бесплатно
  • Александр Заморин | Креатив 4.0 + Реактивный старт в фотографии 2.0 (2015) PCRec [H.264] скачать через торрент бесплатно
  • Александр Заморин и Софи Лебедева | Ретушёр 2016. Начальный и продвинутый уровень (2016) PCRec
  • Александр Заморин и Софи Лебедева | Чертова вспышка (2016) DVDRip
  • Александр Заморин, Софья Лебедева | Нестудийный портрет 2.0 [Уровни I-III] (2015) PCRec
  • Софи Лебедева и Александр Заморин | Летний портрет (2016) PCRec


    • Комментарии (0):

      Информация

      Информация

        Посетители, находящиеся в группе Гости, не могут оставлять комментарии в данной новости.

        ↓ Меню




        ↓ Опрос

        Вы добавили сайт в закладки?
        Да
        Нет


        Top 10 за месяц (Книги)

        Лора Вандеркам | Книга о потерянном времени. У вас больше возможностей, чем вы думаете (2015) [PDF, EPUB, FB2]

        (скачиваний: 33)
        Геннадий Кибардин | Кофе лечит: головную боль, спазм кровеносных сосудов, простуду, астму (2017) [FB2]

        (скачиваний: 31)
        Джозеф Меркола | Клетка «на диете». Научное открытие о влиянии жиров на мышление, физическую активность и обмен веществ (2018) [PDF, FB2, RTF]

        (скачиваний: 31)
        Майкл Фоссел | Теломераза. Как сохранить молодость, укрепить здоровье и увеличить продолжительность жизни (2017) [FB2]

        (скачиваний: 29)
        Pharmama | В аптеке. Записки фармацевта о рисках и побочных действиях (2017) [FB2]

        (скачиваний: 28)
        П.П. Гайденко, В.В. Петров (ред.) | Философия природы в античности и в средние века (2000) [PDF, DJVU]

        (скачиваний: 25)
        Владимир Иванович Даль | Иллюстрированный толковый словарь русского языка (2007) [PDF, DJVU]

        (скачиваний: 21)
        Константин Душенко (сост.) | Настольный словарь цитат (2018) [FB2]

        (скачиваний: 19)
        Л.А. Глинкина | Иллюстрированный толковый словарь забытых и трудных слов русского языка [Около 7000 слов] (2008) [PDF]

        (скачиваний: 19)
        Шарон Бегли | Не могу остановиться. Откуда берутся навязчивые состояния и как от них избавиться (2018) [PDF]

        (скачиваний: 19)