.
Авторизация | Регистрация
Хочешь лучшие торренты? Добавь свой email!
Добавить

Торрент скачать бесплатно

» » Сергей Зеленов | Курс по Node.JS (2017) PCRec торрент скачать бесплатно




    Сергей Зеленов | Курс по Node.JS (2017) PCRec торрент скачать бесплатно

    Опубликовал: Админ | Дата: 3-07-2017, 05:00 | Просмотров: 6

    Автор (режиссер): Сергей Зеленов
    Производство: javascript.ru
    Жанр: Javascript, Программирование

    Описание

    Курс для тех, кто ранее не разрабатывал на Node.JS или хочет получить хороший level-up в этой технологии.
    Этот онлайн-курс посвящён профессиональной Node.JS-разработке.
    В результате курса вы создадите реальный проект и, главное, хорошо разберётесь в Node.JS.
    Вы будете слушать теорию, писать код, показывать его мне, получать обратную связь и советы, и затем двигаться дальше.
    Мы будем использовать современные практики разработки, а не те, которые, хоть и широко представлены в интернете, но давно устарели.
    Вы получите комплексное понимание, как строить архитектуру для Node.JS, какие задачи и как решать.
    Курс можно условно разделить на три части.
    Node.JS, главные строительные блоки разработчика.
    Разработка веб-сервисов на современных технологиях и фреймворках.
    Архитектура сложных приложений, организация проекта.
    Детали программы смотрите далее.
    Продолжительность: 19: 26: 26
    Качество видео: PCRec
    Видео: AVC/H.264, 1680x1050, ~462 Kbps
    Аудио: AAC, 2 ch, 77 kbps

    Format : MPEG-4
    Format profile : Base Media/Version 2
    Codec ID : mp42 (isom/iso2/avc1/mp41)
    File size : 107 MiB
    Duration : 27 min 34 s
    Overall bit rate mode : Variable
    Overall bit rate : 544 kb/s
    Encoded date : UTC 2017-06-29 18: 43: 06
    Tagged date : UTC 2017-06-29 18: 56: 18
    Video
    ID : 1
    Format : AVC
    Format/Info : Advanced Video Codec
    Format profile : Main@L4.2
    Format settings, CABAC : Yes
    Format settings, ReFrames : 5 frames
    Format settings, GOP : M=4, N=25
    Codec ID : avc1
    Codec ID/Info : Advanced Video Coding
    Duration : 27 min 34 s
    Bit rate : 462 kb/s
    Width : 1 680 pixels
    Height : 1 050 pixels
    Display aspect ratio : 16: 10
    Frame rate mode : Constant
    Frame rate : 30.000 FPS
    Color space : YUV
    Chroma subsampling : 4: 2: 0
    Bit depth : 8 bits
    Scan type : Progressive
    Bits/(Pixel*Frame) : 0.009
    Stream size : 91.1 MiB (85%)
    Encoded date : UTC 2017-06-29 18: 43: 06
    Tagged date : UTC 2017-06-29 18: 56: 18
    Color primaries : BT.709
    Transfer characteristics : BT.709
    Matrix coefficients : BT.709
    Audio
    ID : 2
    Format : AAC
    Format/Info : Advanced Audio Codec
    Format profile : LC
    Codec ID : 40
    Duration : 27 min 34 s
    Bit rate mode : Variable
    Bit rate : 77.1 kb/s
    Maximum bit rate : 83.6 kb/s
    Channel(s) : 2 channels
    Channel positions : Front: L R
    Sampling rate : 44.1 kHz
    Frame rate : 43.066 FPS (1024 spf)
    Compression mode : Lossy
    Stream size : 15.2 MiB (14%)
    Encoded date : UTC 2017-06-29 18: 43: 06
    Tagged date : UTC 2017-06-29 18: 43: 37


    Скриншоты для ознакомления




    Сергей Зеленов | Курс по Node.JS (2017) PCRec
    Рейтинг →
     (голосов: 1, оценка 4/5, голосовать можно 1 раз )

    Другие торренты по теме:

  • Сергей Медведев. Загадки века (2018) SATRip (сезон 3, серий 1 из ) (Обновляемая)
  • Антон Емельянов, Сергей Савинов | Слово лорда (2017) [FB2]
  • Сергей Ткачев | Делирий. Печать элементов (2018) [FB2]
  • Сергей Зверев | У расстрельной стены (2018) [FB2]
  • Сергей Гвоздика - Сергей Гвоздика (2014) [MP3|320 кб / с]<Шансон> скачать через торрент бесплатно
  • Сергей Кабаченко | Веселая кулинария для детей. 100+ идей для творчества (2012) [PDF]
  • Сергей Дудин - Вечный зов (2006) [MP3|320 кб / с]<Progressive Rock>
  • Сергей Снегов | Экспедиция в иномир [Главы 1-02 из 31. Обновляемая] (2014) [MP3] скачать через торрент бесплатно


    • Комментарии (0):

      Информация

      Информация

        Посетители, находящиеся в группе Гости, не могут оставлять комментарии в данной новости.

        ↓ Меню




        ↓ Опрос

        Вы добавили сайт в закладки?
        Да
        Нет


        Top 10 за месяц (Книги)

        Лора Вандеркам | Книга о потерянном времени. У вас больше возможностей, чем вы думаете (2015) [PDF, EPUB, FB2]

        (скачиваний: 31)
        Геннадий Кибардин | Кофе лечит: головную боль, спазм кровеносных сосудов, простуду, астму (2017) [FB2]

        (скачиваний: 29)
        Джозеф Меркола | Клетка «на диете». Научное открытие о влиянии жиров на мышление, физическую активность и обмен веществ (2018) [PDF, FB2, RTF]

        (скачиваний: 28)
        Pharmama | В аптеке. Записки фармацевта о рисках и побочных действиях (2017) [FB2]

        (скачиваний: 25)
        Майкл Фоссел | Теломераза. Как сохранить молодость, укрепить здоровье и увеличить продолжительность жизни (2017) [FB2]

        (скачиваний: 25)
        П.П. Гайденко, В.В. Петров (ред.) | Философия природы в античности и в средние века (2000) [PDF, DJVU]

        (скачиваний: 24)
        Шарон Бегли | Не могу остановиться. Откуда берутся навязчивые состояния и как от них избавиться (2018) [PDF]

        (скачиваний: 18)
        Газета | Тайны ХХ века. Секретные архивы №1 (январь 2018) [PDF]

        (скачиваний: 18)
        Владимир Иванович Даль | Иллюстрированный толковый словарь русского языка (2007) [PDF, DJVU]

        (скачиваний: 18)
        Л.А. Глинкина | Иллюстрированный толковый словарь забытых и трудных слов русского языка [Около 7000 слов] (2008) [PDF]

        (скачиваний: 17)