.
Авторизация | Регистрация
Хочешь лучшие торренты? Добавь свой email!
Добавить

Торрент скачать бесплатно

» » Олег Матвеев | Шкала эмоций (2009) CamRip торрент скачать бесплатно




    Олег Матвеев | Шкала эмоций (2009) CamRip торрент скачать бесплатно

    Опубликовал: Админ | Дата: 4-07-2017, 05:00 | Просмотров: 1

    Автор (режиссер): Олег Матвеев
    Жанр: Саморазвитие, Эмоции

    Описание

    В программе тренинга:
    - Интенсив с проработкой Шкалы эмоций, включая процессинг поднятия по Шкале эмоций. Подробная теория о том, что такое эмоции, как они связаны с успехом в жизни, какие бывают эмоции, что такое шкала эмоций, связь эмоций и физиологии человека, эмоции и счастье, позитивные и негативные эмоции;
    - Как можно визуализировать эмоции - свои и других людей и научиться отличать три основных типа эмоций - рассеяния, спайки и потоки (с картинками, схемами и демонстрациями);
    - Проработка Расширенной Шкалы Эмоций, построенной по особому принципу периодичности;
    - Процессинг поднятия по шкале для решения проблем жизни, включая работу с убеждениями и постулатами;
    Продолжительность: 05: 39: 32
    Качество видео: CamRip
    Видео: DivX, 720х416, ~699 Kbps
    Аудио: MP3, 2 ch, 128 Kbps, CBR
    Код: выделить все

    General
    Complete name : C:TorrentsМатвеев Олег - Шкала эмоций (Новосибирск, 2009)День 1 (21.02.2009)M2U00585.avi
    Format : AVI
    Format/Info : Audio Video Interleave
    File size : 304 MiB
    Duration : 50mn 37s
    Overall bit rate : 840 Kbps
    Writing application : MEncoder DVD Catalyst 3-r24986-4.2.1
    Writing library : MPlayer
    Video
    ID : 0
    Format : MPEG-4 Visual
    Format profile : Simple@L1
    Format settings, BVOP : No
    Format settings, QPel : No
    Format settings, GMC : No warppoints
    Format settings, Matrix : Default (H.263)
    Codec ID : DX50
    Codec ID/Hint : DivX 5
    Duration : 50mn 37s
    Bit rate : 699 Kbps
    Width : 720 pixels
    Height : 416 pixels
    Display aspect ratio : 1.731
    Frame rate : 25.000 fps
    Color space : YUV
    Chroma subsampling : 4:2:0
    Bit depth : 8 bits
    Scan type : Progressive
    Compression mode : Lossy
    Bits/(Pixel*Frame) : 0.093
    Stream size : 253 MiB (83%)
    Writing library : Lavc51.48.0
    Audio
    ID : 1
    Format : MPEG Audio
    Format version : Version 1
    Format profile : Layer 3
    Mode : Joint stereo
    Mode extension : MS Stereo
    Codec ID : 55
    Codec ID/Hint : MP3
    Duration : 50mn 37s
    Bit rate mode : Constant
    Bit rate : 128 Kbps
    Channel(s) : 2 channels
    Sampling rate : 48.0 KHz
    Compression mode : Lossy
    Stream size : 46.3 MiB (15%)
    Alignment : Aligned on interleaves
    Interleave, duration : 24 ms (0.60 video frame)
    Interleave, preload duration : 504 ms


    Скриншоты для ознакомления




    Олег Матвеев | Шкала эмоций (2009) CamRip
    Рейтинг →
     (голосов: 1, оценка 3/5, голосовать можно 1 раз )

    Другие торренты по теме:

  • Олег Матвеев | Солопрактика (2009) СамRip
  • Олег Матвеев | Ясные отношения (2011) DVDRip
  • Олег Матвеев| Ясное пространство (2010) CamRip
  • Олег Матвеев | Ясное мышление (2010) CamRip
  • Олег Матвеев | Ясные роли, цели и игры (2010) CamRip
  • Олег Матвеев | Ясные эмоции [Дистанционный курс] (2012) CamRip
  • Олег Матвеев | Ясные эмоции (2010) CamRip
  • Олег Матвеев | Прокрастинация (2014) PCRec [H.264 / 720p]


    • Комментарии (0):

      Информация

      Информация

        Посетители, находящиеся в группе Гости, не могут оставлять комментарии в данной новости.

        ↓ Меню




        ↓ Опрос

        Вы добавили сайт в закладки?
        Да
        Нет


        Top 10 за месяц (Книги)

        Лора Вандеркам | Книга о потерянном времени. У вас больше возможностей, чем вы думаете (2015) [PDF, EPUB, FB2]

        (скачиваний: 31)
        Геннадий Кибардин | Кофе лечит: головную боль, спазм кровеносных сосудов, простуду, астму (2017) [FB2]

        (скачиваний: 29)
        Джозеф Меркола | Клетка «на диете». Научное открытие о влиянии жиров на мышление, физическую активность и обмен веществ (2018) [PDF, FB2, RTF]

        (скачиваний: 28)
        Майкл Фоссел | Теломераза. Как сохранить молодость, укрепить здоровье и увеличить продолжительность жизни (2017) [FB2]

        (скачиваний: 25)
        Pharmama | В аптеке. Записки фармацевта о рисках и побочных действиях (2017) [FB2]

        (скачиваний: 25)
        П.П. Гайденко, В.В. Петров (ред.) | Философия природы в античности и в средние века (2000) [PDF, DJVU]

        (скачиваний: 24)
        Газета | Тайны ХХ века. Секретные архивы №1 (январь 2018) [PDF]

        (скачиваний: 18)
        Шарон Бегли | Не могу остановиться. Откуда берутся навязчивые состояния и как от них избавиться (2018) [PDF]

        (скачиваний: 18)
        Владимир Иванович Даль | Иллюстрированный толковый словарь русского языка (2007) [PDF, DJVU]

        (скачиваний: 18)
        Константин Душенко (сост.) | Настольный словарь цитат (2018) [FB2]

        (скачиваний: 17)