.
Авторизация | Регистрация
Хочешь лучшие торренты? Добавь свой email!
Добавить

Торрент скачать бесплатно

» » Олег Касьянов | Joomla 3 с Нуля до Гуру [два диска] (2016) PCRec торрент скачать бесплатно




    Олег Касьянов | Joomla 3 с Нуля до Гуру [два диска] (2016) PCRec торрент скачать бесплатно

    Опубликовал: Админ | Дата: 4-07-2017, 05:00 | Просмотров: 5

    Автор (режиссер): Олег Касьянов
    Жанр: Веб-дизайн, верстка
    ОФ.сайт: srs.myrusakov.ru/joomla

    Описание

    Видеокурс Joomla 3 с Нуля до Гуру поможет Вам повысить свой уровень в веб-разработке и научит создавать удобные и эффективные сайты на Joomla 3. Курс подходит как для опытных вебмастеров, так и для новичков, кто ещё только начинает.
    Видеокурс начинается с проектирования сайта, чтобы изначально сделать сайт удобнее и эффективнее. Проектирование и планирование сайта - довольно обширный этап и включает много более мелких этапов.
    После планирования начинается техническая реализация и создание собственного адаптивного шаблона.
    Далее рассмотрен процесс переноса и настройки на хостинге, оптимизация под поисковые системы и защита от хакерских атак.
    Видеокурс комплектуется бонусами. Также к курсу приложены вспомогательные материалы, которые помогают в веб-разработке.
    Продолжительность: 10: 18: 17 + 07: 36: 48
    Качество видео: PCRec
    Видео: AVC, 1280x720, ~383 Kbps
    Аудио: AAC, 2 ch, 126 Kbps

    Формат : MPEG-4
    Профиль формата : Base Media/Version 2
    Идентификатор кодека : mp42 (isom/mp42)
    Режим общего битрейта : Переменный
    Общий поток : 511 Кбит/сек
    Дата кодирования : UTC 2016-12-27 08: 01: 18
    Дата пометки : UTC 2016-12-27 08: 01: 18
    Видео
    Идентификатор : 1
    Формат : AVC
    Формат/Информация : Advanced Video Codec
    Профиль формата : Baseline@L3.1
    Параметр CABAC формата : Нет
    Параметр ReFrames формата : 3 кадра
    Идентификатор кодека : avc1
    Идентификатор кодека/Информация : Advanced Video Coding
    Битрейт : 383 Кбит/сек
    Ширина : 1280 пикселей
    Высота : 720 пикселей
    Соотношение сторон : 16: 9
    Режим частоты кадров : Переменный
    Частота кадров : 30, 000 кадров/сек
    Минимальная частота кадров : 30, 000 кадров/сек
    Максимальная частота кадров : 30, 030 кадров/сек
    Стандарт вещания : NTSC
    Цветовое пространство : YUV
    Субдискретизация насыщенности : 4: 2: 0
    Битовая глубина : 8 бит
    Тип развёртки : Прогрессивная
    Бит/(Пиксели*Кадры) : 0.014
    Размер потока : 8, 30 Мбайт (75%)
    Размер потока оригинала : 8, 30 Мбайт (75%)
    Дата кодирования : UTC 2016-12-27 08: 01: 18
    Дата пометки : UTC 2016-12-27 08: 01: 18
    Цветовой диапазон : Limited
    mdhd_Duration : 181833
    Аудио
    Идентификатор : 2
    Формат : AAC
    Формат/Информация : Advanced Audio Codec
    Профиль формата : LC
    Идентификатор кодека : 40
    Вид битрейта : Переменный
    Битрейт : 126 Кбит/сек
    Максимальный битрейт : 204 Кбит/сек
    Каналы : 2 канала
    Расположение каналов : Front: L R
    Частота : 44, 1 КГц
    Частота кадров : 43, 066 кадра/сек (1024 spf)
    Метод сжатия : С потерями
    Размер потока : 2, 72 Мбайт (25%)
    Размер потока оригинала : 2, 72 Мбайт (25%)
    Дата кодирования : UTC 2016-12-27 08: 01: 18
    Дата пометки : UTC 2016-12-27 08: 01: 18
    mdhd_Duration : 181859


    Скриншоты для ознакомления




    Олег Касьянов | Joomla 3 с Нуля до Гуру [два диска] (2016) PCRec
    Рейтинг →
     (голосов: 1, оценка 3/5, голосовать можно 1 раз )

    Другие торренты по теме:

  • Олег Касьянов | HTML & CSS за 3 дня (2013) [unpacked]


    • Комментарии (0):

      Информация

      Информация

        Посетители, находящиеся в группе Гости, не могут оставлять комментарии в данной новости.

        ↓ Меню




        ↓ Опрос

        Вы добавили сайт в закладки?
        Да
        Нет


        Top 10 за месяц (Книги)

        Лора Вандеркам | Книга о потерянном времени. У вас больше возможностей, чем вы думаете (2015) [PDF, EPUB, FB2]

        (скачиваний: 31)
        Геннадий Кибардин | Кофе лечит: головную боль, спазм кровеносных сосудов, простуду, астму (2017) [FB2]

        (скачиваний: 30)
        Джозеф Меркола | Клетка «на диете». Научное открытие о влиянии жиров на мышление, физическую активность и обмен веществ (2018) [PDF, FB2, RTF]

        (скачиваний: 30)
        Майкл Фоссел | Теломераза. Как сохранить молодость, укрепить здоровье и увеличить продолжительность жизни (2017) [FB2]

        (скачиваний: 28)
        Pharmama | В аптеке. Записки фармацевта о рисках и побочных действиях (2017) [FB2]

        (скачиваний: 27)
        П.П. Гайденко, В.В. Петров (ред.) | Философия природы в античности и в средние века (2000) [PDF, DJVU]

        (скачиваний: 24)
        Владимир Иванович Даль | Иллюстрированный толковый словарь русского языка (2007) [PDF, DJVU]

        (скачиваний: 20)
        Константин Душенко (сост.) | Настольный словарь цитат (2018) [FB2]

        (скачиваний: 19)
        Газета | Тайны ХХ века. Секретные архивы №1 (январь 2018) [PDF]

        (скачиваний: 18)
        Шарон Бегли | Не могу остановиться. Откуда берутся навязчивые состояния и как от них избавиться (2018) [PDF]

        (скачиваний: 18)