.
Авторизация | Регистрация
Хочешь лучшие торренты? Добавь свой email!
Добавить

Торрент скачать бесплатно

» » HTML Academy | Интенсивный онлайн-курс «Продвинутый JavaScript» (2017) PCRec [H.264 / 720p-LQ] торрент скачать бесплатно




    HTML Academy | Интенсивный онлайн-курс «Продвинутый JavaScript» (2017) PCRec [H.264 / 720p-LQ] торрент скачать бесплатно

    Опубликовал: Админ | Дата: 14-09-2017, 05:00 | Просмотров: 13

    Автор (режиссер): HTML Academy
    Жанр: Javascript, Программирование

    Описание

    Курс предназначен для тех, кто прошёл Базовый JavaScript, или для разработчиков, желающих поднять свои навыки.
    После прохождения курса вы будете уверенно готовить современные веб-приложения.
    В рамках интенсива будет проходить работа над двумя проектами:
    - Учебный проект;
    - Личный проект.
    Продолжительность: 20: 23: 32
    Качество видео: PCRec
    Видео: AVC/H.264, 1280x720, ~90-160 Kbps
    Аудио: AAC, 2 ch, 127 Kbps

    General
    Complete name : .HTML Academy Продвинутый Javascript (2017)22 Модули.MP4
    Format : MPEG-4
    Format profile : Base Media
    Codec ID : isom (isom/iso2/avc1/mp41)
    File size : 240 MiB
    Duration : 2 h 10 min
    Overall bit rate : 258 kb/s
    Writing application : Lavf57.56.100
    Video
    ID : 1
    Format : AVC
    Format/Info : Advanced Video Codec
    Format profile : High@L3.1
    Format settings, CABAC : Yes
    Format settings, ReFrames : 4 frames
    Codec ID : avc1
    Codec ID/Info : Advanced Video Coding
    Duration : 2 h 10 min
    Bit rate : 122 kb/s
    Width : 1 280 pixels
    Height : 720 pixels
    Display aspect ratio : 16: 9
    Frame rate mode : Variable
    Frame rate : 30.000 FPS
    Minimum frame rate : 29.653 FPS
    Maximum frame rate : 30.000 FPS
    Color space : YUV
    Chroma subsampling : 4: 2: 0
    Bit depth : 8 bits
    Scan type : Progressive
    Bits/(Pixel*Frame) : 0.004
    Stream size : 114 MiB (47%)
    Writing library : x264 core 148 r2744 b97ae06
    Encoding settings : cabac=1/ref=3/deblock=1: 0: 0/analyse=0x3: 0x113/me=hex/subme=7/psy=1/psy_rd=1.00: 0.00/mixed_ref=1/me_range=16/chroma_me=1/trellis=1/8x8dct=1/cqm=0/deadzone=21, 11/fast_pskip=1/chroma_qp_offset=-2/threads=6/lookahead_threads=1/sliced_threads=0/nr=0/decimate=1/interlaced=0/bluray_compat=0/constrained_intra=0/bframes=3/b_pyramid=2/b_adapt=1/b_bias=0/direct=1/weightb=1/open_gop=0/weightp=2/keyint=250/keyint_min=25/scenecut=40/intra_refresh=0/rc_lookahead=40/rc=crf/mbtree=1/crf=23.0/qcomp=0.60/qpmin=0/qpmax=69/qpstep=4/ip_ratio=1.40/aq=1: 1.00
    Audio
    ID : 2
    Format : AAC
    Format/Info : Advanced Audio Codec
    Format profile : LC
    Codec ID : 40
    Duration : 2 h 10 min
    Bit rate mode : Constant
    Bit rate : 127 kb/s
    Channel(s) : 2 channels
    Channel positions : Front: L R
    Sampling rate : 48.0 kHz
    Frame rate : 46.875 FPS (1024 spf)
    Compression mode : Lossy
    Stream size : 119 MiB (49%)
    Default : Yes
    Alternate group : 1


    HTML Academy | Интенсивный онлайн-курс «Продвинутый JavaScript» (2017) PCRec [H.264/720p-LQ]
    Рейтинг →
     (голосов: 1, оценка 5/5, голосовать можно 1 раз )

    Другие торренты по теме:

  • HTML Academy | Продвинутый онлайн-интенсив «Создание веб-интерфейсов с помощью HTML и CSS» (2015) PCRec скачать через торрент бесплатно
  • HTML Academy | Интенсивный онлайн-курс «Базовый HTML и CSS» (2016) PCRec [H.264]
  • HTML Academy | Интенсивный онлайн-курс «Продвинутый HTML и CSS» (2016) PCRec
  • HTML Academy | Интенсивный онлайн-курс «Базовый HTML и CSS» (2017) PCRec [H.264 / 1080p-LQ]
  • HTML Academy | Интенсивный онлайн-курс «Продвинутый HTML и CSS» (2017) PCRec [H.264]
  • HTML Academy | Интенсивный онлайн-курс «Базовый HTML и CSS» (2017) PCRec [H.264] [Обновленная программа]
  • HTML Academy | Интенсивный онлайн-курс «Базовый JavaScript» (2015) PCRec [H.264]
  • HTML Academy | Интенсивный онлайнкурс «Базовый PHP» (2017) PCRec [H.264 / 1080p-LQ]


    • Комментарии (0):

      Информация

      Информация

        Посетители, находящиеся в группе Гости, не могут оставлять комментарии в данной новости.

        ↓ Меню




        ↓ Опрос

        Вы добавили сайт в закладки?
        Да
        Нет


        Top 10 за месяц (Книги)

        Алекс Мэй | Сборник редких видео (6 записей) (2008-2014) CamRip

        (скачиваний: 49)
        Хейли Помрой | Формируем Пищевые Привычки для здоровья (2018) [PDF, FB2, RTF, EPUB, MOBI]

        (скачиваний: 38)
        Генрих Ужегов | Если рядом нет врача (2018) [PDF]

        (скачиваний: 35)
        Бо Лотто | Преломление. Наука видеть иначе (2018) [PDF]

        (скачиваний: 31)
        Дейна Уайт | Как поддерживать порядок в доме и не сойти с ума (2017) [PDF, FB2, RTF]

        (скачиваний: 31)
        Кайя Норденген | Мозг всемогущий. Путеводитель по самому незаменимому органу нашего тела (2017) [FB2]

        (скачиваний: 28)
        Cет Cтивенс-Давидовиц | Все лгут. Поисковики, Big Data и Интернет знают о вас всё (2018) [FB2]

        (скачиваний: 27)
        Борис Акунин | Не прощаюсь (2018) [FB2]

        (скачиваний: 27)
        Уильям Макрейвен | Заправляй кровать. 10 простых правил, которые могут изменить твою жизнь и, возможно, весь мир (2018) [FB2]

        (скачиваний: 27)
        Журнал | Садовод и огородник. Спецвыпуск №1. Уроки обрезки садовых деревьев (январь 2018) [PDF]

        (скачиваний: 26)