.
Авторизация | Регистрация
Хочешь лучшие торренты? Добавь свой email!
Добавить

Торрент скачать бесплатно

» » Jillian Michaels | Body Revolution (2012) HDTVRip [H.264 / 720p-LQ] [EN] торрент скачать бесплатно




    Jillian Michaels | Body Revolution (2012) HDTVRip [H.264 / 720p-LQ] [EN] торрент скачать бесплатно

    Опубликовал: Админ | Дата: 14-11-2017, 05:00 | Просмотров: 1

    Автор (режиссер): Jillian Michaels
    Производство: США
    Жанр: Фитнес

    Описание

    Body Revolution с Джиллиан Майклс - полноценная программа, рассчитанная на 90 дней, включает в себя целый комплекс аэробных и силовых тренировок. В течение 3 месяцев вас ждет действительно Революция вашего тела.
    Продолжительность: 08: 35: 01
    Качество видео: HDTVRip
    Перевод: Отсутствует
    Язык озвучки: Английский
    Видео: AVC/H.264, 1280х720, ~1980 Kbps
    Аудио: AAC, 2 ch, 151 Kbps, VBR

    Jillian Michaels - Body RevolutionJillian Michaels - Cardio 1.mp4
    Format : MPEG-4
    Format profile : Base Media
    Codec ID : isom (isom/iso2/avc1/mp41)
    File size : 405 MiB
    Duration : 26 min 26 s
    Overall bit rate mode : Variable
    Overall bit rate : 2 140 kb/s
    Writing application : Lavf56.25.101
    Video
    ID : 1
    Format : AVC
    Format/Info : Advanced Video Codec
    Format profile : High@L3.1
    Format settings : CABAC/4 Ref Frames
    Format settings, CABAC : Yes
    Format settings, RefFrames : 4 frames
    Codec ID : avc1
    Codec ID/Info : Advanced Video Coding
    Duration : 26 min 26 s
    Bit rate : 1 980 kb/s
    Width : 1 280 pixels
    Height : 720 pixels
    Display aspect ratio : 16: 9
    Frame rate mode : Constant
    Frame rate : 29.970 (30000/1001) FPS
    Color space : YUV
    Chroma subsampling : 4: 2: 0
    Bit depth : 8 bits
    Scan type : Progressive
    Bits/(Pixel*Frame) : 0.072
    Stream size : 375 MiB (93%)
    Writing library : x264 core 142
    Encoding settings : cabac=1/ref=3/deblock=1: 0: 0/analyse=0x3: 0x113/me=hex/subme=7/psy=1/psy_rd=1.00: 0.00/mixed_ref=1/me_range=16/chroma_me=1/trellis=1/8x8dct=1/cqm=0/deadzone=21, 11/fast_pskip=1/chroma_qp_offset=-2/threads=6/lookahead_threads=1/sliced_threads=0/nr=0/decimate=1/interlaced=0/bluray_compat=0/constrained_intra=0/bframes=3/b_pyramid=2/b_adapt=1/b_bias=0/direct=1/weightb=1/open_gop=0/weightp=2/keyint=30/keyint_min=3/scenecut=40/intra_refresh=0/rc_lookahead=30/rc=2pass/mbtree=1/bitrate=1980/ratetol=1.0/qcomp=0.60/qpmin=0/qpmax=69/qpstep=4/cplxblur=20.0/qblur=0.5/ip_ratio=1.40/aq=1: 1.00
    Audio
    ID : 2
    Format : AAC
    Format/Info : Advanced Audio Codec
    Format profile : LC
    Codec ID : mp4a-40-2
    Duration : 26 min 26 s
    Duration_LastFrame : -7 ms
    Bit rate mode : Variable
    Bit rate : 151 kb/s
    Maximum bit rate : 192 kb/s
    Channel(s) : 2 channels
    Channel positions : Front: L R
    Sampling rate : 44.1 kHz
    Frame rate : 43.066 FPS (1024 SPF)
    Compression mode : Lossy
    Stream size : 28.6 MiB (7%)
    Default : Yes
    Alternate group : 1


    Jillian Michaels | Body Revolution (2012) HDTVRip [H.264/720p-LQ] [EN]
    Рейтинг →
     (голосов: 1, оценка 4/5, голосовать можно 1 раз )

    Другие торренты по теме:

  • Jillian Michaels | Killer Abs (2012) DVDRip [EN, POR]
  • Jillian Michaels | BodyShred (2015) DVDRip [H.264] [EN]
  • Jillian Michaels | Body Revolution (2012) DVDRip [EN]
  • Jillian Michaels | Killer Buns and Thighs (2011) DVDRip [EN]
  • Jillian Michaels | Killer Body (2015) DVDRip [EN]
  • Jillian Michaels | Beginner Shred (2014) DVDRip [H.264] [EN]
  • Jillian Michaels | Shred-It With Weights (2010) DVDRip [RU, EN]
  • Jillian Michaels | 10 Minute Body Transformation (2016) WEBRip [H.264 / 720p] [EN]


    • Комментарии (0):

      Информация

      Информация

        Посетители, находящиеся в группе Гости, не могут оставлять комментарии в данной новости.

        ↓ Меню




        ↓ Опрос

        Вы добавили сайт в закладки?
        Да
        Нет


        Top 10 за месяц (Книги)

        Алекс Мэй | Сборник редких видео (6 записей) (2008-2014) CamRip

        (скачиваний: 45)
        Генрих Ужегов | Если рядом нет врача (2018) [PDF]

        (скачиваний: 30)
        Хейли Помрой | Формируем Пищевые Привычки для здоровья (2018) [PDF, FB2, RTF, EPUB, MOBI]

        (скачиваний: 28)
        Журнал | Садовод и огородник. Спецвыпуск №1. Уроки обрезки садовых деревьев (январь 2018) [PDF]

        (скачиваний: 25)
        Борис Акунин | Не прощаюсь (2018) [FB2]

        (скачиваний: 25)
        Дейна Уайт | Как поддерживать порядок в доме и не сойти с ума (2017) [PDF, FB2, RTF]

        (скачиваний: 23)
        Cет Cтивенс-Давидовиц | Все лгут. Поисковики, Big Data и Интернет знают о вас всё (2018) [FB2]

        (скачиваний: 22)
        Кайя Норденген | Мозг всемогущий. Путеводитель по самому незаменимому органу нашего тела (2017) [FB2]

        (скачиваний: 22)
        Тони Бьюзен, Барри Бьюзен | Супермышление (2014) [FB2]

        (скачиваний: 21)
        Уильям Макрейвен | Заправляй кровать. 10 простых правил, которые могут изменить твою жизнь и, возможно, весь мир (2018) [FB2]

        (скачиваний: 21)