.
Авторизация | Регистрация
Хочешь лучшие торренты? Добавь свой email!
Добавить

Торрент скачать бесплатно

» » Александр Заботкин | Супер Premier Pro 2 (2017) [unpacked] торрент скачать бесплатно




    Александр Заботкин | Супер Premier Pro 2 (2017) [unpacked] торрент скачать бесплатно

    Опубликовал: Админ | Дата: 25-12-2017, 05:00 | Просмотров: 32

    Автор (режиссер): Александр Заботкин
    Производство: VideoSmile
    Жанр: Обработка видео
    Системные требования:
    • Операционная система Microsoft Windows 98/Me/200/XP/Vista/7
    • Процессор Pentium II 500 Мгц
    • 128 Мб оперативной памяти
    • Разрешение экрана 1024x768 с глубиной цвета 16 бит
    • Наличие Adobe Flash Player 10

    Формат: unpacked

    Описание

    Продвинутый курс по монтажу в программе Premiere Pro.
    Данный курс состоит из двух блоков – Теория монтажа и Практика монтажа. В первом блоке вы познакомитесь с теоретическими аспектами монтажа, во втором – будете работать в программе и собирать настоящие киношные сцены. По такому же принципу обучают монтажу в New York Film Academy и других ведущих киношколах мира.
    Продолжительность: 11: 39: 12
    Качество видео: PCRec
    Видео: AVC/H.264, 1920x1080, ~2144 Kbps
    Аудио: AAC, 2 ch, 126 Kbps

    General
    Complete name : D: Александр Заботкин - Супер Premiere Pro 2 (2017)rsvideo12.mp4
    Format : MPEG-4
    Format profile : Base Media
    Codec ID : isom (isom/iso2/avc1/mp41)
    File size : 169 MiB
    Duration : 10 min 23 s
    Overall bit rate : 2 276 kb/s
    Writing application : Lavf57.2.100
    Video
    ID : 1
    Format : AVC
    Format/Info : Advanced Video Codec
    Format profile : High@L4
    Format settings, CABAC : Yes
    Format settings, ReFrames : 2 frames
    Codec ID : avc1
    Codec ID/Info : Advanced Video Coding
    Duration : 10 min 23 s
    Bit rate : 2 144 kb/s
    Width : 1 920 pixels
    Height : 1 080 pixels
    Display aspect ratio : 16: 9
    Frame rate mode : Constant
    Frame rate : 25.000 FPS
    Color space : YUV
    Chroma subsampling : 4: 2: 0
    Bit depth : 8 bits
    Scan type : Progressive
    Bits/(Pixel*Frame) : 0.041
    Stream size : 159 MiB (94%)
    Color range : Limited
    Color primaries : BT.709
    Transfer characteristics : BT.709
    Matrix coefficients : BT.709
    Audio
    ID : 2
    Format : AAC
    Format/Info : Advanced Audio Codec
    Format profile : LC
    Codec ID : 40
    Duration : 10 min 23 s
    Bit rate mode : Constant
    Bit rate : 126 kb/s
    Channel(s) : 2 channels
    Channel positions : Front: L R
    Sampling rate : 44.1 kHz
    Frame rate : 43.066 FPS (1024 spf)
    Compression mode : Lossy
    Stream size : 9.33 MiB (6%)
    Default : Yes
    Alternate group : 1


    Александр Заботкин | Супер Premier Pro 2 (2017) [unpacked]
    Рейтинг →
     (голосов: 1, оценка 3/5, голосовать можно 1 раз )

    Другие торренты по теме:

  • Александр Литвин | Выше Бога не буду (2018) [MP3]
  • Алексей Широков, Александр Шапочкин | Рубикон (2018) [FB2]
  • Протоиерей Александр Соколов (сост.) | Библия для детей. Священная история в простых рассказах для чтения в школе и дома, Ветхий и Новый Заветы (2017) [PDF, DJVU]
  • Александр Авраменко | Стальная дуга (2017) [MP3]
  • Александр Покрышкин (1985) SATRip
  • Александр Горохов | Премия за убийцу (2018) [MP3]
  • Александр Витковский | За пять минут до ядерной полуночи (2017) [FB2]
  • Александр Кукушкин | Вокруг риторики за 365 дней. Упражнения для развития речи (2017) [EPUB, FB2, MOBI]


    • Комментарии (0):

      Информация

      Информация

        Посетители, находящиеся в группе Гости, не могут оставлять комментарии в данной новости.

        ↓ Меню




        ↓ Опрос

        Вы добавили сайт в закладки?
        Да
        Нет


        Top 10 за месяц (Книги)

        Алекс Мэй | Сборник редких видео (6 записей) (2008-2014) CamRip

        (скачиваний: 49)
        Хейли Помрой | Формируем Пищевые Привычки для здоровья (2018) [PDF, FB2, RTF, EPUB, MOBI]

        (скачиваний: 38)
        Генрих Ужегов | Если рядом нет врача (2018) [PDF]

        (скачиваний: 35)
        Бо Лотто | Преломление. Наука видеть иначе (2018) [PDF]

        (скачиваний: 31)
        Дейна Уайт | Как поддерживать порядок в доме и не сойти с ума (2017) [PDF, FB2, RTF]

        (скачиваний: 31)
        Кайя Норденген | Мозг всемогущий. Путеводитель по самому незаменимому органу нашего тела (2017) [FB2]

        (скачиваний: 28)
        Cет Cтивенс-Давидовиц | Все лгут. Поисковики, Big Data и Интернет знают о вас всё (2018) [FB2]

        (скачиваний: 27)
        Борис Акунин | Не прощаюсь (2018) [FB2]

        (скачиваний: 27)
        Уильям Макрейвен | Заправляй кровать. 10 простых правил, которые могут изменить твою жизнь и, возможно, весь мир (2018) [FB2]

        (скачиваний: 27)
        Журнал | Садовод и огородник. Спецвыпуск №1. Уроки обрезки садовых деревьев (январь 2018) [PDF]

        (скачиваний: 26)