.
Авторизация | Регистрация
Хочешь лучшие торренты? Добавь свой email!
Добавить

Торрент скачать бесплатно

» » HTML Academy | Интенсивный онлайн-курс «Базовый HTML и CSS» (2017) PCRec [H.264] [Обновленная программа] торрент скачать бесплатно




    HTML Academy | Интенсивный онлайн-курс «Базовый HTML и CSS» (2017) PCRec [H.264] [Обновленная программа] торрент скачать бесплатно

    Опубликовал: Админ | Дата: 11-01-2018, 05:00 | Просмотров: 7

    Автор (режиссер): HTML Academy
    Жанр: Веб-дизайн, HTML, CSS

    Описание

    HTML Academy — стандарт в обучении фронтендеров. Наша задача — сделать из любого новичка полноценного и востребованного специалиста, готового работать в веб-индустрии.
    Продолжительность: 26: 49: 11
    Качество видео: PCRec
    Видео: AVC/H.264, 1280-1920x720-1080, ~303-1798 Kbps
    Аудио: AAC, 2 ch, 146-236

    Общее
    Полное имя : HTML Academy Интенсивный онлайн-курс Базовый HTML и CSS №182 РазметкаБазовый HTML и CSS. 2 лекция.mp4
    Формат : MPEG-4
    Профиль формата : Base Media/Version 2
    Идентификатор кодека : mp42 (mp42/mp41/isom/avc1)
    Размер файла : 705 Мбайт
    Продолжительность : 2 ч. 33 м.
    Режим общего битрейта : Переменный
    Общий поток : 644 Кбит/сек
    Дата кодирования : UTC 2017-08-11 05: 52: 48
    Дата пометки : UTC 2017-08-11 05: 52: 48
    Видео
    Идентификатор : 1
    Формат : AVC
    Формат/Информация : Advanced Video Codec
    Профиль формата : High@L3.2
    Параметр CABAC формата : Да
    Параметр RefFrames формата : 5 кадров
    Параметр GOP формата : M=4, N=90
    Идентификатор кодека : avc1
    Идентификатор кодека/Информация : Advanced Video Coding
    Продолжительность : 2 ч. 33 м.
    Битрейт : 404 Кбит/сек
    Ширина : 1280 пикселей
    Высота : 720 пикселей
    Соотношение сторон : 16: 9
    Режим частоты кадров : Постоянный
    Частота кадров : 30, 000 кадров/сек
    Цветовое пространство : YUV
    Субдискретизация насыщенности : 4: 2: 0
    Битовая глубина : 8 бит
    Тип развёртки : Прогрессивная
    Бит/(Пиксели*Кадры) : 0.015
    Размер потока : 443 Мбайт (63%)
    Библиотека кодирования : x264 core 150 r10 df79067
    Настройки программы : cabac=1/ref=5/deblock=1: 0: 0/analyse=0x3: 0x113/me=hex/subme=8/psy=1/psy_rd=1.00: 0.00/mixed_ref=1/me_range=16/chroma_me=1/trellis=2/8x8dct=1/cqm=0/deadzone=21, 11/fast_pskip=1/chroma_qp_offset=-2/threads=22/lookahead_threads=3/sliced_threads=0/nr=0/decimate=1/interlaced=0/bluray_compat=0/stitchable=1/constrained_intra=0/bframes=3/b_pyramid=2/b_adapt=1/b_bias=0/direct=3/weightb=1/open_gop=0/weightp=2/keyint=infinite/keyint_min=30/scenecut=40/intra_refresh=0/rc_lookahead=50/rc=crf/mbtree=1/crf=20.0/qcomp=0.60/qpmin=5/qpmax=69/qpstep=4/vbv_maxrate=2750/vbv_bufsize=7500/crf_max=0.0/nal_hrd=none/filler=0/ip_ratio=1.40/aq=1: 1.00
    Дата кодирования : UTC 2017-08-11 05: 52: 48
    Дата пометки : UTC 2017-08-11 05: 52: 48
    Цветовой диапазон : Limited
    Основные цвета : BT.709
    Характеристики трансфера : BT.709
    Коэффициенты матрицы : BT.709
    Аудио
    Идентификатор : 2
    Формат : AAC
    Формат/Информация : Advanced Audio Codec
    Профиль формата : LC
    Идентификатор кодека : 40
    Продолжительность : 2 ч. 33 м.
    Вид битрейта : Переменный
    Битрейт : 235 Кбит/сек
    Каналы : 2 канала
    Расположение каналов : Front: L R
    Частота : 48, 0 КГц
    Частота кадров : 46, 875 кадров/сек (1024 SPF)
    Метод сжатия : С потерями
    Размер потока : 258 Мбайт (37%)
    Дата кодирования : UTC 2017-08-11 05: 52: 48
    Дата пометки : UTC 2017-08-11 05: 52: 48
    Общее
    Полное имя : HTML Academy Интенсивный онлайн-курс Базовый HTML и CSS №187 Декоративные элементыСкринкастыВёрстка слайдера в Нёрдс.mp4
    Формат : MPEG-4
    Профиль формата : Base Media/Version 2
    Идентификатор кодека : mp42 (mp42/mp41/isom/avc1)
    Размер файла : 101 Мбайт
    Продолжительность : 18 м. 59 с.
    Режим общего битрейта : Переменный
    Общий поток : 740 Кбит/сек
    Дата кодирования : UTC 2015-02-08 21: 21: 25
    Дата пометки : UTC 2015-02-08 21: 21: 25
    Видео
    Идентификатор : 1
    Формат : AVC
    Формат/Информация : Advanced Video Codec
    Профиль формата : High@L4
    Параметр CABAC формата : Да
    Параметр RefFrames формата : 4 кадра
    Идентификатор кодека : avc1
    Идентификатор кодека/Информация : Advanced Video Coding
    Продолжительность : 18 м. 59 с.
    Битрейт : 501 Кбит/сек
    Ширина : 1728 пикселей
    Высота : 1080 пикселей
    Соотношение сторон : 16: 10
    Режим частоты кадров : Постоянный
    Частота кадров : 30, 000 кадров/сек
    Цветовое пространство : YUV
    Субдискретизация насыщенности : 4: 2: 0
    Битовая глубина : 8 бит
    Тип развёртки : Прогрессивная
    Бит/(Пиксели*Кадры) : 0.009
    Размер потока : 68, 0 Мбайт (68%)
    Библиотека кодирования : x264 core 142 r11 24e4fed
    Настройки программы : cabac=1/ref=3/deblock=1: 0: 0/analyse=0x3: 0x113/me=hex/subme=7/psy=1/psy_rd=1.00: 0.00/mixed_ref=1/me_range=16/chroma_me=1/trellis=1/8x8dct=1/cqm=0/deadzone=21, 11/fast_pskip=1/chroma_qp_offset=-2/threads=48/lookahead_threads=8/sliced_threads=0/nr=0/decimate=1/interlaced=0/bluray_compat=0/stitchable=1/constrained_intra=0/bframes=3/b_pyramid=2/b_adapt=1/b_bias=0/direct=1/weightb=1/open_gop=0/weightp=2/keyint=infinite/keyint_min=30/scenecut=40/intra_refresh=0/rc_lookahead=40/rc=crf/mbtree=1/crf=20.0/qcomp=0.60/qpmin=5/qpmax=69/qpstep=4/vbv_maxrate=4950/vbv_bufsize=13500/crf_max=0.0/nal_hrd=none/filler=0/ip_ratio=1.40/aq=1: 1.00
    Дата кодирования : UTC 2015-02-08 21: 21: 25
    Дата пометки : UTC 2015-02-08 21: 21: 25
    Цветовой диапазон : Limited
    Основные цвета : BT.709
    Характеристики трансфера : BT.709
    Коэффициенты матрицы : BT.709
    Аудио
    Идентификатор : 2
    Формат : AAC
    Формат/Информация : Advanced Audio Codec
    Профиль формата : LC
    Идентификатор кодека : 40
    Продолжительность : 18 м. 59 с.
    Вид битрейта : Переменный
    Битрейт : 235 Кбит/сек
    Каналы : 2 канала
    Расположение каналов : Front: L R
    Частота : 48, 0 КГц
    Частота кадров : 46, 875 кадров/сек (1024 SPF)
    Метод сжатия : С потерями
    Размер потока : 32, 0 Мбайт (32%)
    Дата кодирования : UTC 2015-02-08 21: 21: 25
    Дата пометки : UTC 2015-02-08 21: 21: 25
    Общее
    Полное имя : HTML Academy Интенсивный онлайн-курс Базовый HTML и CSS №181 ВводныйБазовый HTML и CSS. 1 лекция.mp4
    Формат : MPEG-4
    Профиль формата : Base Media/Version 2
    Идентификатор кодека : mp42 (mp42/mp41/isom/avc1)
    Размер файла : 859 Мбайт
    Продолжительность : 2 ч. 20 м.
    Режим общего битрейта : Переменный
    Общий поток : 857 Кбит/сек
    Дата кодирования : UTC 2017-08-08 04: 47: 03
    Дата пометки : UTC 2017-08-08 04: 47: 03
    Видео
    Идентификатор : 1
    Формат : AVC
    Формат/Информация : Advanced Video Codec
    Профиль формата : High@L4
    Параметр CABAC формата : Да
    Параметр RefFrames формата : 4 кадра
    Идентификатор кодека : avc1
    Идентификатор кодека/Информация : Advanced Video Coding
    Продолжительность : 2 ч. 20 м.
    Битрейт : 617 Кбит/сек
    Ширина : 1920 пикселей
    Высота : 1080 пикселей
    Соотношение сторон : 16: 9
    Режим частоты кадров : Постоянный
    Частота кадров : 30, 000 кадров/сек
    Цветовое пространство : YUV
    Субдискретизация насыщенности : 4: 2: 0
    Битовая глубина : 8 бит
    Тип развёртки : Прогрессивная
    Бит/(Пиксели*Кадры) : 0.010
    Размер потока : 618 Мбайт (72%)
    Библиотека кодирования : x264 core 150 r10 df79067
    Настройки программы : cabac=1/ref=4/deblock=1: 0: 0/analyse=0x3: 0x113/me=hex/subme=8/psy=1/psy_rd=1.00: 0.00/mixed_ref=1/me_range=16/chroma_me=1/trellis=2/8x8dct=1/cqm=0/deadzone=21, 11/fast_pskip=1/chroma_qp_offset=-2/threads=34/lookahead_threads=5/sliced_threads=0/nr=0/decimate=1/interlaced=0/bluray_compat=0/stitchable=1/constrained_intra=0/bframes=3/b_pyramid=2/b_adapt=1/b_bias=0/direct=3/weightb=1/open_gop=0/weightp=2/keyint=infinite/keyint_min=30/scenecut=40/intra_refresh=0/rc_lookahead=50/rc=crf/mbtree=1/crf=20.0/qcomp=0.60/qpmin=5/qpmax=69/qpstep=4/vbv_maxrate=5500/vbv_bufsize=15000/crf_max=0.0/nal_hrd=none/filler=0/ip_ratio=1.40/aq=1: 1.00
    Дата кодирования : UTC 2017-08-08 04: 47: 03
    Дата пометки : UTC 2017-08-08 04: 47: 03
    Цветовой диапазон : Limited
    Основные цвета : BT.709
    Характеристики трансфера : BT.709
    Коэффициенты матрицы : BT.709
    Аудио
    Идентификатор : 2
    Формат : AAC
    Формат/Информация : Advanced Audio Codec
    Профиль формата : LC
    Идентификатор кодека : 40
    Продолжительность : 2 ч. 20 м.
    Вид битрейта : Переменный
    Битрейт : 235 Кбит/сек
    Каналы : 2 канала
    Расположение каналов : Front: L R
    Частота : 48, 0 КГц
    Частота кадров : 46, 875 кадров/сек (1024 SPF)
    Метод сжатия : С потерями
    Размер потока : 236 Мбайт (27%)
    Дата кодирования : UTC 2017-08-08 04: 47: 03
    Дата пометки : UTC 2017-08-08 04: 47: 03


    HTML Academy | Интенсивный онлайн-курс «Базовый HTML и CSS» (2017) PCRec [H.264] [Обновленная программа]
    Рейтинг →
     (голосов: 1, оценка 4/5, голосовать можно 1 раз )

    Другие торренты по теме:

  • HTML Academy | Продвинутый онлайн-интенсив «Создание веб-интерфейсов с помощью HTML и CSS» (2015) PCRec скачать через торрент бесплатно
  • HTML Academy | Интенсивный онлайн-курс «Базовый HTML и CSS» (2016) PCRec [H.264]
  • HTML Academy | Интенсивный онлайн-курс «Продвинутый HTML и CSS» (2016) PCRec
  • HTML Academy | Интенсивный онлайн-курс «Базовый HTML и CSS» (2017) PCRec [H.264 / 1080p-LQ]
  • HTML Academy | Интенсивный онлайн-курс «Продвинутый HTML и CSS» (2017) PCRec [H.264]
  • HTML Academy | Интенсивный онлайн-курс «Базовый JavaScript» (2015) PCRec [H.264]
  • HTML Academy | Интенсивный онлайн-курс «Продвинутый JavaScript» (2017) PCRec [H.264 / 720p-LQ]
  • HTML Academy | Интенсивный онлайнкурс «Базовый PHP» (2017) PCRec [H.264 / 1080p-LQ]


    • Комментарии (0):

      Информация

      Информация

        Посетители, находящиеся в группе Гости, не могут оставлять комментарии в данной новости.

        ↓ Меню




        ↓ Опрос

        Вы добавили сайт в закладки?
        Да
        Нет


        Top 10 за месяц (Книги)

        Алекс Мэй | Сборник редких видео (6 записей) (2008-2014) CamRip

        (скачиваний: 49)
        Хейли Помрой | Формируем Пищевые Привычки для здоровья (2018) [PDF, FB2, RTF, EPUB, MOBI]

        (скачиваний: 38)
        Генрих Ужегов | Если рядом нет врача (2018) [PDF]

        (скачиваний: 35)
        Бо Лотто | Преломление. Наука видеть иначе (2018) [PDF]

        (скачиваний: 31)
        Дейна Уайт | Как поддерживать порядок в доме и не сойти с ума (2017) [PDF, FB2, RTF]

        (скачиваний: 31)
        Кайя Норденген | Мозг всемогущий. Путеводитель по самому незаменимому органу нашего тела (2017) [FB2]

        (скачиваний: 28)
        Cет Cтивенс-Давидовиц | Все лгут. Поисковики, Big Data и Интернет знают о вас всё (2018) [FB2]

        (скачиваний: 27)
        Борис Акунин | Не прощаюсь (2018) [FB2]

        (скачиваний: 27)
        Уильям Макрейвен | Заправляй кровать. 10 простых правил, которые могут изменить твою жизнь и, возможно, весь мир (2018) [FB2]

        (скачиваний: 27)
        Журнал | Садовод и огородник. Спецвыпуск №1. Уроки обрезки садовых деревьев (январь 2018) [PDF]

        (скачиваний: 26)