.
Авторизация | Регистрация
Хочешь лучшие торренты? Добавь свой email!
Добавить

Торрент скачать бесплатно

» » Школа современных технологий | MODX. Базовый курс (2017) PCRec [H.264 / 1080p-LQ] торрент скачать бесплатно




    Школа современных технологий | MODX. Базовый курс (2017) PCRec [H.264 / 1080p-LQ] торрент скачать бесплатно

    Опубликовал: Админ | Дата: 12-01-2018, 05:00 | Просмотров: 3

    Автор (режиссер): Школа современных технологий
    Производство: Семен Кудрявцев
    Жанр: Программирование

    Описание

    Курс предназначен для всех, кто хочет зарабатывать на создании сайтов, не погружаясь глубоко в программирование. MODX – гибкая и удобная в использовании CMS. На сегодняшний день она является одной из наиболее популярных и развивающихся систем, на ней разрабатывается всё больше сайтов. Для наиболее комфортного прохождения курса желательно знание HTML, CSS и JS.
    Продолжительность: 16: 51: 38
    Качество видео: PCRec
    Видео: AVC/H.264, 1920x1080, ~793-1139 Kbps
    Аудио: AAC, 2 ch, 126 Kbps

    Общее
    Полное имя : ntschool MODX Базовый курс1 Знакомство с MODX Revolution1 Знакомство с MODX Revolution.mp4
    Формат : MPEG-4
    Профиль формата : Base Media/Version 2
    Идентификатор кодека : mp42 (isom/mp42)
    Размер файла : 936 Мбайт
    Продолжительность : 2 ч. 21 м.
    Режим общего битрейта : Переменный
    Общий поток : 922 Кбит/сек
    Дата кодирования : UTC 2017-11-16 19: 38: 49
    Дата пометки : UTC 2017-11-16 19: 38: 49
    Видео
    Идентификатор : 1
    Формат : AVC
    Формат/Информация : Advanced Video Codec
    Профиль формата : Baseline@L4.1
    Параметр CABAC формата : Нет
    Параметр RefFrames формата : 1 кадр
    Идентификатор кодека : avc1
    Идентификатор кодека/Информация : Advanced Video Coding
    Продолжительность : 2 ч. 21 м.
    Битрейт : 793 Кбит/сек
    Ширина : 1920 пикселей
    Высота : 1080 пикселей
    Соотношение сторон : 16: 9
    Режим частоты кадров : Постоянный
    Частота кадров : 30, 000 кадров/сек
    Стандарт вещания : NTSC
    Цветовое пространство : YUV
    Субдискретизация насыщенности : 4: 2: 0
    Битовая глубина : 8 бит
    Тип развёртки : Прогрессивная
    Бит/(Пиксели*Кадры) : 0.013
    Размер потока : 806 Мбайт (86%)
    Язык : English
    Дата кодирования : UTC 2017-11-16 19: 38: 50
    Дата пометки : UTC 2017-11-16 19: 38: 50
    Цветовой диапазон : Limited
    Аудио
    Идентификатор : 2
    Формат : AAC
    Формат/Информация : Advanced Audio Codec
    Профиль формата : LC
    Идентификатор кодека : 40
    Продолжительность : 2 ч. 21 м.
    Вид битрейта : Переменный
    Битрейт : 126 Кбит/сек
    Максимальный битрейт : 173 Кбит/сек
    Каналы : 2 канала
    Расположение каналов : Front: L R
    Частота : 44, 1 КГц
    Частота кадров : 43, 066 кадра/сек (1024 SPF)
    Метод сжатия : С потерями
    Размер потока : 128 Мбайт (14%)
    Язык : English
    Дата кодирования : UTC 2017-11-16 19: 38: 50
    Дата пометки : UTC 2017-11-16 19: 38: 50


    Школа современных технологий | MODX. Базовый курс (2017) PCRec [H.264/1080p-LQ]
    Рейтинг →
     (голосов: 1, оценка 3/5, голосовать можно 1 раз )

    Другие торренты по теме:

  • Школа современных технологий | Linux. modrewrite (2015) PCRec [H.264 / 720p-LQ]
  • Школа современных технологий | Чек-лист для оптимизации сайта. SEO.chek-list (2015) PCRec [H.264 / 720p] скачать через торрент бесплатно
  • Школа современных технологий | Среда знаний. Основы JQuery (2015) PCRec [H.264] скачать через торрент бесплатно
  • Школа современных технологий | Среда знаний. SEO. Анализ конкурентов (2015) PCRec [H.264] скачать через торрент бесплатно
  • Школа современных технологий | Среда знаний. SEO. Заточка лендинга (2015) PCRec [H.264] скачать через торрент бесплатно
  • Школа современных технологий | Среда знаний. Яндекс. Минусинск (2015) PCRec [H.264] скачать через торрент бесплатно
  • Школа современных технологий | Среда знаний. С++ выход из лабиринта (2015) PCRec [H.264] скачать через торрент бесплатно
  • Школа современных технологий | Среда знаний. Основы GIT (2015) PCRec [H.264 / 720p] скачать через торрент бесплатно


    • Комментарии (0):

      Информация

      Информация

        Посетители, находящиеся в группе Гости, не могут оставлять комментарии в данной новости.

        ↓ Меню




        ↓ Опрос

        Вы добавили сайт в закладки?
        Да
        Нет


        Top 10 за месяц (Книги)