.
Авторизация | Регистрация
Хочешь лучшие торренты? Добавь свой email!
Добавить

Торрент скачать бесплатно

» » Галина Исаева | Обработка фотографий (2017) PCRec [H.264 / 1080p-LQ] торрент скачать бесплатно




    Галина Исаева | Обработка фотографий (2017) PCRec [H.264 / 1080p-LQ] торрент скачать бесплатно

    Опубликовал: Админ | Дата: 12-01-2018, 05:00 | Просмотров: 13

    Автор (режиссер): Галина Исаева
    Жанр: Обработка и съемка фото

    Описание

    Рецепты вкусного цвета и объема, которые неизменно помогают мне на протяжении всей профессиональной деятельности: в свадебной, семейной и портретной фотографии.
    Продолжительность: 01: 52: 15
    Качество видео: PCRec
    Видео: AVC/H.264, 1920x1080, ~6953 Kbps
    Аудио: AAC, 2 ch, 317 Kbps
    General
    Complete name : D: photoГалина Исаева - Обработка фотографий (2017)11 Полина.mp4
    Format : MPEG-4
    Format profile : Base Media/Version 2
    Codec ID : mp42 (mp42/mp41)
    File size : 605 MiB
    Duration : 11 min 37 s
    Overall bit rate mode : Variable
    Overall bit rate : 7 274 kb/s
    Encoded date : UTC 2017-12-17 17: 18: 16
    Tagged date : UTC 2017-12-17 17: 18: 28
    ©TIM : 00;00;00;00
    ©TSC : 15
    ©TSZ : 1
    Video
    ID : 1
    Format : AVC
    Format/Info : Advanced Video Codec
    Format profile : Main@L4.1
    Format settings, CABAC : Yes
    Format settings, RefFrames : 4 frames
    Codec ID : avc1
    Codec ID/Info : Advanced Video Coding
    Duration : 11 min 37 s
    Bit rate : 6 953 kb/s
    Width : 1 920 pixels
    Height : 1 080 pixels
    Display aspect ratio : 16: 9
    Frame rate mode : Constant
    Frame rate : 15.000 FPS
    Color space : YUV
    Chroma subsampling : 4: 2: 0
    Bit depth : 8 bits
    Scan type : Progressive
    Bits/(Pixel*Frame) : 0.224
    Stream size : 578 MiB (96%)
    Language : English
    Encoded date : UTC 2017-12-17 17: 18: 16
    Tagged date : UTC 2017-12-17 17: 18: 16
    Color range : Limited
    Color primaries : BT.709
    Transfer characteristics : BT.709
    Matrix coefficients : BT.709
    Audio
    ID : 2
    Format : AAC
    Format/Info : Advanced Audio Codec
    Format profile : LC
    Codec ID : 40
    Duration : 11 min 37 s
    Source duration : 11 min 37 s
    Bit rate mode : Variable
    Bit rate : 317 kb/s
    Maximum bit rate : 412 kb/s
    Channel(s) : 2 channels
    Channel positions : Front: L R
    Sampling rate : 48.0 kHz
    Frame rate : 46.875 FPS (1024 SPF)
    Compression mode : Lossy
    Stream size : 26.4 MiB (4%)
    Source stream size : 26.4 MiB (4%)
    Language : English
    Encoded date : UTC 2017-12-17 17: 18: 16
    Tagged date : UTC 2017-12-17 17: 18: 16


    Галина Исаева | Обработка фотографий (2017) PCRec [H.264/1080p-LQ]
    Рейтинг →
     (голосов: 1, оценка 3/5, голосовать можно 1 раз )

    Другие торренты по теме:

  • Александр Киселев и Галина Исаева | Обучающий курс по съемке Love Story (2014) WEBRip [H.264 / 1080p] скачать через торрент бесплатно


    • Комментарии (0):

      Информация

      Информация

        Посетители, находящиеся в группе Гости, не могут оставлять комментарии в данной новости.

        ↓ Меню




        ↓ Опрос

        Вы добавили сайт в закладки?
        Да
        Нет


        Top 10 за месяц (Книги)