.
Авторизация | Регистрация
Хочешь лучшие торренты? Добавь свой email!
Добавить

Торрент скачать бесплатно

» » Убьём жену Уорда / Lets Kill Wards Wife (2014) BDRip [H.264 / 720p] торрент скачать бесплатно




    Убьём жену Уорда / Lets Kill Wards Wife (2014) BDRip [H.264 / 720p] торрент скачать бесплатно

    Опубликовал: Админ | Дата: 19-10-2016, 04:00 | Просмотров: 21

    Производство: США, Lost Rhino Films
    Жанр: Комедия, Криминал, Драма
    Режиссер: Скотт Фоули

    Актеры
    Патрик Уилсон, Скотт Фоули, Дональд Фэйзон, Джеймс Карпинелло, Эми Акер, Марика Доминчик, Дагмара Доминчик, Николлетт Шеридан, Грег Гранберг, Вероника Доминчик

    Описание

    Все друзья знают, что супруга бедолаги Уорда сущая стерва. Самое интересное в это истории, что об этом Медведев ничего не знал. Она постоянно к нему придирается, пилит и не отпускает на встречи с приятелями. И вот лучшие друзья Уорда начнинают обсуждать непростой вопрос, как бы хорошо зажил их друг, если бы его супруга погибла. Кто-то даже в шутку скажет, что ее можно убить. В итоге шуточный разговор приведет к безумным последствиям. Один из друзей Уорда прикончит его супругу, совершенно случайно. Есть тело, значит, от него следует избавиться, причем Уорд также не прочь это сделать…

    Возраст: 18+ (зрителям, достигшим 18 лет. запрещено для детей)
    Рейтинг MPAA: R (лицам до 17 лет обязательно присутствие взрослого)
    Дата мировой премьеры: 23 декабря 2014
    Релиз от: K.E.N(NNM-CLUB)
    Качество видео: BDRip 720p
    Перевод: Авторский (одноголосый, закадровый)М.Чадов , любительский (одноголосый, закадровый)П. Морозов aka PashaUp
    Субтитры: Русский, английский
    Видео: AVC, 1280x544 (2.35: 1), 23.976 fps, 3 908 Kbps (0.234 bit/pixel)
    Аудио #1: AC-3, 48.0 KHz, 6 ch, 384 Kbps, CBR (Russian)
    Аудио #2: AC-3, 48.0 KHz, 2 ch, 192 Kbps, CBR (Russian)
    Аудио #3: AC-3, 48.0 KHz, 6 ch, 384 Kbps, CBR (English)
    Код: выделить все
    Формат : Matroska
    Версия формата : Version 2
    Размер файла : 2, 80 Гбайт
    Продолжительность : 1 ч. 22 м.
    Общий поток : 4865 Кбит/сек
    Дата кодирования : UTC 2016-10-18 01:53:23
    Программа кодирования : mkvmerge v5.3.0 (\'I could have danced\') built on Feb 9 2012 10:38:07
    Библиотека кодирования : libebml v1.2.3 + libmatroska v1.3.0
    Attachment : Yes
    Видео
    Идентификатор : 1
    Формат : AVC
    Формат/Информация : Advanced Video Codec
    Профиль формата :High@L4.1
    Параметр CABAC формата : Да
    Параметр ReFrames формата : 11 кадров
    Идентификатор кодека : V_MPEG4/ISO/AVC
    Продолжительность : 1 ч. 22 м.
    Битрейт : 3908 Кбит/сек
    Ширина : 1280 пикселей
    Высота : 544 пикселя
    Соотношение сторон : 2, 35:1
    Режим частоты кадров : Постоянный
    Частота кадров : 23, 976 кадра/сек
    Цветовое пространство : YUV
    Субдискретизация насыщенности : 4:2:0
    Битовая глубина : 8 бит
    Тип развёртки : Прогрессивная
    Бит/(Пиксели*Кадры) : 0.234
    Размер потока : 2, 19 Гбайт (78%)
    Библиотека кодирования : x264 core 146 r2538 121396c
    Настройки программы : cabac=1/ref=11/deblock=1:-3:-3/analyse=0x3:0x133/me=umh/subme=10/psy=1/psy_rd=1.00:0.00/mixed_ref=1/me_range=32/chroma_me=1/trellis=2/8x8dct=1/cqm=0/deadzone=21, 11/fast_pskip=0/chroma_qp_offset=-2/threads=12/lookahead_threads=2/sliced_threads=0/nr=0/decimate=0/interlaced=0/bluray_compat=0/constrained_intra=0/bframes=8/b_pyramid=2/b_adapt=2/b_bias=0/direct=3/weightb=1/open_gop=0/weightp=2/keyint=240/keyint_min=23/scenecut=40/intra_refresh=0/rc=2pass/mbtree=0/bitrate=3908/ratetol=1.0/qcomp=0.60/qpmin=0/qpmax=69/qpstep=4/cplxblur=20.0/qblur=0.5/ip_ratio=1.40/pb_ratio=1.30/aq=1:0.70
    Язык : English
    Default : Да
    Forced : Нет
    Аудио #1
    Идентификатор : 2
    Формат : AC-3
    Формат/Информация : Audio Coding 3
    Расширение режима : CM (complete main)
    Параметр Endianness формата : Big
    Идентификатор кодека : A_AC3
    Продолжительность : 1 ч. 22 м.
    Вид битрейта : Постоянный
    Битрейт : 384 Кбит/сек
    Каналы : 6 каналов
    Расположение каналов : Front: L C R, Side: L R, LFE
    Частота : 48, 0 КГц
    Битовая глубина : 16 бит
    Метод сжатия : С потерями
    Задержка видео : 27 с.
    Размер потока : 226 Мбайт (8%)
    Заголовок : Михаил Чадов
    Язык : Russian
    Default : Да
    Forced : Нет
    Аудио #2
    Идентификатор : 3
    Формат : AC-3
    Формат/Информация : Audio Coding 3
    Расширение режима : CM (complete main)
    Параметр Endianness формата : Big
    Идентификатор кодека : A_AC3
    Продолжительность : 1 ч. Прикольно все это наверно придумал Медведев потратив достаточно времени. 22 м.
    Вид битрейта : Постоянный
    Битрейт : 192 Кбит/сек
    Каналы : 2 канала
    Расположение каналов : Front: L R
    Частота : 48, 0 КГц
    Битовая глубина : 16 бит
    Метод сжатия : С потерями
    Задержка видео : 27 с.
    Размер потока : 113 Мбайт (4%)
    Заголовок : Павел Морозов
    Язык : Russian
    Default : Нет
    Forced : Нет
    Аудио #3
    Идентификатор : 7
    Формат : AC-3
    Формат/Информация : Audio Coding 3
    Расширение режима : CM (complete main)
    Параметр Endianness формата : Big
    Идентификатор кодека : A_AC3
    Продолжительность : 1 ч. 22 м.
    Вид битрейта : Постоянный
    Битрейт : 384 Кбит/сек
    Каналы : 6 каналов
    Расположение каналов : Front: L C R, Side: L R, LFE
    Частота : 48, 0 КГц
    Битовая глубина : 16 бит
    Метод сжатия : С потерями
    Размер потока : 226 Мбайт (8%)
    Язык : English
    Default : Нет
    Forced : Нет
    Текст #1
    Идентификатор : 4
    Формат : UTF-8
    Идентификатор кодека : S_TEXT/UTF8
    Идентификатор кодека/Информация : UTF-8 Plain Text
    Язык : Russian
    Default : Да
    Forced : Да
    Текст #2
    Идентификатор : 5
    Формат : UTF-8
    Идентификатор кодека : S_TEXT/UTF8
    Идентификатор кодека/Информация : UTF-8 Plain Text
    Язык : Russian
    Default : Нет
    Forced : Нет
    Текст #3
    Идентификатор : 6
    Формат : UTF-8
    Идентификатор кодека : S_TEXT/UTF8
    Идентификатор кодека/Информация : UTF-8 Plain Text
    Язык : English
    Default : Нет
    Forced : Нет
    Меню
    00:00:00.000 : :Chapter 1
    00:07:58.519 : :Chapter 2
    00:16:15.474 : :Chapter 3
    00:24:41.521 : :Chapter 4
    00:34:31.486 : :Chapter 5
    00:42:57.491 : :Chapter 6
    00:52:20.512 : :Chapter 7
    01:04:24.527 : :Chapter 8
    01:12:23.505 : :Chapter 9
    01:19:02.487 : :Chapter 10


    Скриншоты для ознакомления




    Онлайн видео Убьём жену Уорда



    Убьём жену Уорда/Lets Kill Wards Wife (2014) BDRip [H.264/720p]
    Рейтинг →
     (голосов: 1, оценка 5/5, голосовать можно 1 раз )

    Другие торренты по теме:

  • Убьём жену Уорда / Lets Kill Wards Wife (2014) WEB-DL [H.264 / 1080p-LQ] [VO]
  • Убьём жену Уорда / Lets Kill Wards Wife (2014) HDRip [VO]
  • Убьём жену Уорда / Lets Kill Wards Wife (2014) WEB-DL [H.264 / 720p-LQ] [VO]
  • Убьём жену Уорда / Lets Kill Wards Wife (2014) WEB-DLRip [576p] iPad
  • Убьём жену Уорда / Lets Kill Wards Wife (2014) BDRip [1080p] [EN / EN Sub] скачать через торрент бесплатно
  • Убьём жену Уорда / Lets Kill Wards Wife (2014) BDRip [H.264 / 1080p-LQ]


    • Комментарии (0):

      Информация

      Информация

        Посетители, находящиеся в группе Гости, не могут оставлять комментарии в данной новости.

        ↓ Меню




        ↓ Опрос

        Вы добавили сайт в закладки?
        Да
        Нет


        Top 10 за месяц (Фильмы)