.
Авторизация | Регистрация
Хочешь лучшие торренты? Добавь свой email!
Добавить

Торрент скачать бесплатно

» » Молодежка (2016) WEBRip (сезон 4, серии 1-8 из 52) (обновляемая) торрент скачать бесплатно




    Молодежка (2016) WEBRip (сезон 4, серии 1-8 из 52) (обновляемая) торрент скачать бесплатно

    Опубликовал: Админ | Дата: 25-10-2016, 04:00 | Просмотров: 28

    Производство: Россия/Арт Пикчерс Вижн
    Жанр: драма, спорт
    Режиссер: Сергей Арланов, Андрей Головков

    Актеры
    Денис Никифоров, Михаил Жигалов, Фёдор Бондарчук, Сергей Габриэлян, Владимир Зайцев, Сергей Комаров, Анатолий Лобоцкий, Ксения Лаврова-Глинка, Серафима Низовская, Валентина Ананьина и др.

    Описание

    Новый сезон любимого сериала Молодежки обещает массу сюрпризов поклонникам сериала. Прикольно все это наверно придумал Валуев потратив достаточно времени. Казалось, после триумфа молодежной сборной в Турнире четырех все встало на свои места. Но в большом спорте невозможно победить навсегда! Героям сериала Молодежка в 4 сезон любимого сериалае предстоит не только возродить Медведей, но и заново построить отношения с семьей, друзьями и новыми коллегами по команде, что совсем не просто, когда на кону не только место в сборной, но и судьба любимого человека.

    Возраст: 16+ (зрителям, достигшим 16 лет)
    Продолжительность: ~00: 48: 00 серия
    Качество видео: WEBRip
    Реклама: присутствуют текстовые вставки рекламы
    Видео: Xvid, 720х400 (16: 9), ~1500 Kbps
    Аудио: MP3, 2 ch, 128 Kbps, CBR

    General
    Complete name : Фильмы/Molodezhka.(4.sezon).2016/01.seria.WEBRip.avi
    Format : AVI
    Format/Info : Audio Video Interleave
    File size : 557 MiB
    Duration : 47 min 35 s
    Overall bit rate : 1 638 kb/s
    Writing application : VirtualDubMod 1.5.10.3 |www.virtualdub-fr.org|| (build 2550/release)
    Writing library : VirtualDubMod build 2550/release
    Video
    ID : 0
    Format : MPEG-4 Visual
    Format profile : Advanced Simple@L5
    Format settings, BVOP : 2
    Format settings, QPel : No
    Format settings, GMC : No warppoints
    Format settings, Matrix : Default (H.263)
    Codec ID : XVID
    Codec ID/Hint : XviD
    Duration : 47 min 35 s
    Bit rate : 1 500 kb/s
    Width : 720 pixels
    Height : 400 pixels
    Display aspect ratio : 16: 9
    Frame rate : 25.000 FPS
    Color space : YUV
    Chroma subsampling : 4: 2: 0
    Bit depth : 8 bits
    Scan type : Progressive
    Compression mode : Lossy
    Bits/(Pixel*Frame) : 0.208
    Stream size : 510 MiB (92%)
    Writing library : XviD 1.2.1 (UTC 2008-12-04)
    Audio
    ID : 1
    Format : MPEG Audio
    Format version : Version 1
    Format profile : Layer 3
    Mode : Joint stereo
    Mode extension : MS Stereo
    Codec ID : 55
    Codec ID/Hint : MP3
    Duration : 47 min 35 s
    Bit rate mode : Constant
    Bit rate : 128 kb/s
    Channel(s) : 2 channels
    Sampling rate : 48.0 kHz
    Compression mode : Lossy
    Stream size : 43.6 MiB (8%)
    Alignment : Aligned on interleaves
    Interleave, duration : 40 ms (1.00 video frame)
    Interleave, preload duration : 504 ms
    Writing library : LAME3.99r
    Encoding settings : -m j -V 4 -q 9 -lowpass 17 -b 128
    General
    Complete name : Videos/Фильмы/Molodezhka.(4.sezon).2016/08.seria.WEBRip.avi
    Format : AVI
    Format/Info : Audio Video Interleave
    File size : 586 MiB
    Duration : 47 min 45 s
    Overall bit rate : 1 715 kb/s
    Writing application : VirtualDubMod 1.5.10.3 (build 2550/release)
    Writing library : VirtualDubMod build 2550/release
    Video
    ID : 0
    Format : MPEG-4 Visual
    Format profile : Advanced Simple@L5
    Format settings, BVOP : 1
    Format settings, QPel : No
    Format settings, GMC : No warppoints
    Format settings, Matrix : Custom
    Codec ID : XVID
    Codec ID/Hint : XviD
    Duration : 47 min 45 s
    Bit rate : 1 513 kb/s
    Width : 720 pixels
    Height : 400 pixels
    Display aspect ratio : 16: 9
    Frame rate : 25.000 FPS
    Color space : YUV
    Chroma subsampling : 4: 2: 0
    Bit depth : 8 bits
    Scan type : Progressive
    Compression mode : Lossy
    Bits/(Pixel*Frame) : 0.210
    Stream size : 517 MiB (88%)
    Writing library : XviD 73
    Audio
    ID : 1
    Format : AC-3
    Format/Info : Audio Coding 3
    Mode extension : CM (complete main)
    Format settings, Endianness : Big
    Codec ID : 2000
    Duration : 47 min 45 s
    Bit rate mode : Constant
    Bit rate : 192 kb/s
    Channel(s) : 2 channels
    Channel positions : Front: L R
    Sampling rate : 44.1 kHz
    Frame rate : 28.711 FPS (1536 spf)
    Compression mode : Lossy
    Stream size : 65.6 MiB (11%)
    Alignment : Split accross interleaves
    Interleave, duration : 40 ms (1.00 video frame)
    Interleave, preload duration : 500 ms


    Скриншоты для ознакомления




    Онлайн видео Молодежка (2016) WEBRip (сезон любимого сериала 4, серии 1



    Молодежка (2016) WEBRip (сезон 4, серии 1-8 из 52) (обновляемая)
    Рейтинг →
     (голосов: 1, оценка 5/5, голосовать можно 1 раз )

    Другие торренты по теме:

  • Молодежка. Взрослая жизнь (2017) WEB-DL [H.264 / 720p-LQ] (сезон 5, серии 1 из 44) (обновляемая)
  • Молодежка. Взрослая жизнь (2017) WEB-DLRip [H.264] (сезон 5, серии 1 из 44) (обновляемая)
  • Молодежка. Взрослая жизнь (2017) WEB-DLRip (сезон 5, серии 1 из 44) (обновляемая)
  • Молодежка. Взрослая жизнь (2017) WEB-DL [H.264 / 1080p-LQ] (сезон 5, серии 1-4 из 44) (обновляемая)


    • Комментарии (0):

      Информация

      Информация

        Посетители, находящиеся в группе Гости, не могут оставлять комментарии в данной новости.

        ↓ Меню




        ↓ Опрос

        Вы добавили сайт в закладки?
        Да
        Нет


        Top 10 за месяц (Фильмы)