.
Авторизация | Регистрация
Хочешь лучшие торренты? Добавь свой email!
Добавить

Торрент скачать бесплатно

» » Шоссе в никуда / Lost Highway (1997) BDRip [H.265 / 1080p-LQ] [Main10] торрент скачать бесплатно




    Шоссе в никуда / Lost Highway (1997) BDRip [H.265 / 1080p-LQ] [Main10] торрент скачать бесплатно

    Опубликовал: Админ | Дата: 31-10-2016, 04:00 | Просмотров: 25

    Производство: Франция, США/Asymmetrical Productions, CiBy 2000, Lost Highway Productions LLC, October Films
    Жанр: Триллер, Драма, Детектив
    Режиссер: Дэвид Линч

    Актеры
    Билл Пуллман, Патриция Аркетт, Бальтазар Гетти, Роберт Блейк, Наташа Грегсон Вагнер, Ричард Прайор, Люси Батлер, Майкл Масси, Джек Нэнс, Джек Келер, Генри Роллинз, Джованни Рибизи, Скотт Коффи, Гэри Бьюзи, Роберт Лоджа, Джон Роселиус, Луис Эпполито, Дженна Мэтлинд, Минк Стоул, Леонард Термо, Айвори Оушен, Дэвид Бирд, Джин Росс, Ф. Уильям Паркер

    Описание

    Фред Мэдисон обвинен в убийстве своей жены Ренэ и приговорен к высшей мере наказания. Незадолго до исполнения приговора он таинственным образом исчезает из камеры смертников, а на его месте находят растерянного и ничего не понимающего Пита Дейтона. Как он оказался в камере? Куда исчез убийца?
    Выпущенный на свободу, Пит пытается вернуться к повседневной нормальной жизни, но вместо нее его ждет необъяснимый, поражающий воображение кошмар…

    Рейтинг MPAA: R (лицам до 17 лет обязательно присутствие взрослого)
    Релиз от: Absinthd
    Продолжительность: 02: 14: 07
    Качество видео: BDRip-LQ
    Перевод: Многоголосый закадровый (Киномания)
    Язык субтитров: Русский
    Вид субтитров: Вшитые (отключаемые)
    Видео: HEVC/H.265, 1912x816, ~4909 Kbps
    Аудио: AC3, 6 ch, 448 Kbps, CBR

    Общее
    Уникальный идентификатор : 244017095832261954934513834093035010673 (0xB793FBB1B8E54CE4A8544D45D8EE3A71)
    Полное имя : E: VideoШоссе в никуда (Lost Highway).mkv
    Формат : Matroska
    Версия формата : Version 4/Version 2
    Размер файла : 5, 02 Гбайт
    Продолжительность : 2 ч. 14 м.
    Общий поток : 5359 Кбит/сек
    Название фильма : Шоссе в никуда/Lost Highway
    Дата кодирования : UTC 2016-09-28 13: 06: 09
    Программа кодирования : mkvmerge v9.0.1 (\'Obstacles\') 64bit
    Библиотека кодирования : libebml v1.3.3 + libmatroska v1.4.4
    Attachments : Шоссе в никуда-12.jpg
    Видео
    Идентификатор : 2
    Формат : HEVC
    Формат/Информация : High Efficiency Video Coding
    Профиль формата : Main 10@L4@Main
    Идентификатор кодека : V_MPEGH/ISO/HEVC
    Продолжительность : 2 ч. 14 м.
    Битрейт : 4909 Кбит/сек
    Ширина : 1912 пикселей
    Высота : 816 пикселей
    Соотношение сторон : 2, 35: 1
    Режим частоты кадров : Постоянный
    Частота кадров : 24, 000 кадра/сек
    Цветовое пространство : YUV
    Субдискретизация насыщенности : 4: 2: 0
    Битовая глубина : 10 бит
    Бит/(Пиксели*Кадры) : 0.131
    Размер потока : 4, 60 Гбайт (92%)
    Библиотека кодирования : x265 1.8+209-07c85baedb16701d: WindowsGCC 5.3.064 bit 10bit: KG7x x265.ru
    Настройки программы : wpp/ctu=64/min-cu-size=8/max-tu-size=32/tu-intra-depth=3/tu-inter-depth=3/me=3/subme=4/merange=57/rect/amp/max-merge=4/temporal-mvp/early-skip/rdpenalty=0/no-tskip/no-tskip-fast/strong-intra-smoothing/no-lossless/no-cu-lossless/no-constrained-intra/no-fast-intra/open-gop/no-temporal-layers/interlace=0/keyint=250/min-keyint=24/scenecut=40/rc-lookahead=60/lookahead-slices=0/bframes=8/bframe-bias=0/b-adapt=2/ref=5/limit-refs=3/limit-modes/weightp/weightb/aq-mode=3/qg-size=16/aq-strength=1.00/cbqpoffs=0/crqpoffs=0/rd=6/psy-rd=1.00/rdoq-level=2/psy-rdoq=10.00/no-rd-refine/signhide/deblock=-2: -2/sao/no-sao-non-deblock/b-pyramid/cutree/no-intra-refresh/rc=crf/crf=25.0/qcomp=0.80/qpmin=0/qpmax=51/qpstep=4/ipratio=1.10/pbratio=1.10
    Default : Да
    Forced : Нет
    Аудио
    Идентификатор : 1
    Формат : AC-3
    Формат/Информация : Audio Coding 3
    Расширение режима : CM (complete main)
    Параметр Endianness формата : Big
    Идентификатор кодека : A_AC3
    Продолжительность : 2 ч. 14 м.
    Вид битрейта : Постоянный
    Битрейт : 448 Кбит/сек
    Каналы : 6 каналов
    Расположение каналов : Front: L C R, Side: L R, LFE
    Частота : 48, 0 КГц
    Частота кадров : 31, 250 кадров/сек (1536 spf)
    Метод сжатия : С потерями
    Размер потока : 430 Мбайт (8%)
    Заголовок : Перевод: многоголосый закадровый Киномания
    Язык : Russian
    Default : Да
    Forced : Нет
    Текст #1
    Идентификатор : 3
    Формат : UTF-8
    Идентификатор кодека : S_TEXT/UTF8
    Идентификатор кодека/Информация : UTF-8 Plain Text
    Продолжительность : 2 ч. 7 м.
    Битрейт : 28 бит/сек
    Count of elements : 572
    Размер потока : 26, 4 Кбайт (0%)
    Заголовок : Chronos
    Язык : Russian
    Default : Да
    Forced : Нет
    Текст #2
    Идентификатор : 4
    Формат : UTF-8
    Идентификатор кодека : S_TEXT/UTF8
    Идентификатор кодека/Информация : UTF-8 Plain Text
    Продолжительность : 2 ч. 7 м.
    Битрейт : 28 бит/сек
    Count of elements : 571
    Размер потока : 26, 4 Кбайт (0%)
    Заголовок : D2lab
    Язык : Russian
    Default : Нет
    Forced : Нет
    Текст #3
    Идентификатор : 5
    Формат : UTF-8
    Идентификатор кодека : S_TEXT/UTF8
    Идентификатор кодека/Информация : UTF-8 Plain Text
    Продолжительность : 2 ч. 8 м.
    Битрейт : 26 бит/сек
    Count of elements : 474
    Размер потока : 25, 3 Кбайт (0%)
    Заголовок : Twister
    Язык : Russian
    Default : Нет
    Forced : Нет
    Меню
    00: 00: 00.000 : en: Chapter 01
    00: 02: 46.500 : en: Chapter 02
    00: 09: 43.291 : en: Chapter 03
    00: 18: 43.791 : en: Chapter 04
    00: 27: 20.541 : en: Chapter 05
    00: 34: 02.416 : en: Chapter 06
    00: 42: 12.208 : en: Chapter 07
    00: 51: 15.958 : en: Chapter 08
    00: 58: 55.208 : en: Chapter 09
    01: 11: 47.125 : en: Chapter 10
    01: 26: 41.958 : en: Chapter 11
    01: 36: 10.583 : en: Chapter 12
    01: 49: 59.583 : en: Chapter 13
    01: 56: 40.791 : en: Chapter 14
    02: 06: 33.583 : en: Chapter 15
    02: 09: 13.000 : en: Chapter 16
    XMP
    Xmp.video.FileName : E: VideoШоссе в никуда (Lost Highway).mkv
    Xmp.video.FileSize : -9.53674e-007
    Xmp.video.MimeType : video/matroska
    Xmp.video.EBMLVersion : 1
    Xmp.video.EBMLReadVersion : 1
    Xmp.video.DocType : matroska
    Xmp.video.DocTypeVersion : 4
    Xmp.video.DocTypeReadVersion : 2
    Xmp.video.TimecodeScale : 0.001
    Xmp.video.MuxingApp : libebml v1.3.3 + libmatroska v1.4.4
    Xmp.video.WritingApp : mkvmerge v9.0.1 (\'Obstacles\') 64bit
    Xmp.video.Duration : 8047042
    Xmp.video.DateUTC : 496760769
    Xmp.video.Title : РЁРѕСЃСЃРµ РІ РЅРёРєСѓРґР°/Lost Highway
    Xmp.video.TotalStream : 15
    Xmp.audio.Compressor : A_AC3
    Xmp.audio.DefaultDuration : 32000
    Xmp.audio.TrackLang : rus
    Xmp.video.TrackName : Twister
    Xmp.audio.SampleRate : 48000
    Xmp.video.TrackLacing : No
    Xmp.video.Codec : V_MPEGH/ISO/HEVC
    Xmp.video.FrameRate : 24
    Xmp.video.TrackLang : und
    Xmp.video.Width : 1912
    Xmp.video.Height : 816
    Xmp.video.SubTTrackLacing : No
    Xmp.video.SubTCodec : S_TEXT/UTF8
    Xmp.video.SubTLang : rus
    Xmp.video.SubTDefaultOn : No
    Xmp.video.AttachFileName : РЁРѕСЃСЃРµ РІ РЅРёРєСѓРґР°-12.jpg
    Xmp.video.AttachFileMIME : image/jpeg
    Xmp.video.AttachFileUID : 8251510147298109849
    Xmp.video.AttachFileDesc : BD Cover
    Xmp.video.AspectRatio : 2.35: 1


    Скриншоты для ознакомления




    Онлайн видео Шоссе в никуда



    Шоссе в никуда/Lost Highway (1997) BDRip [H.265/1080p-LQ] [Main10]
    Рейтинг →
     (голосов: 1, оценка 5/5, голосовать можно 1 раз )

    Другие торренты по теме:

  • Велоспорт. Чемпионат мира по шоссе 2014. Индивидуальная гонка с раздельным стартом / Road World Championships 2014. (24.09.2014) HDTVRip [H.264 / 1080p-LQ] [EN]
  • Велоспорт. Чемпионат мира по шоссе 2014. Групповая гонка / Road World Championships 2014. (28.09.2014) HDTVRip [H.264 / 1080p-LQ] [EN] скачать через торрент бесплатно
  • NG: Шоссе через ад. США / Highway Thru Hell (2012) SATRip (Сезон №3. Серия 1) скачать через торрент бесплатно
  • Брестское шоссе (1966) DVDScr скачать через торрент бесплатно
  • Шоссе смерти / Highwaymen (2004) WEB-DLRip [H.264] скачать через торрент бесплатно
  • Шоссе Энтузиастов (2002) DVD5
  • Александр Бек | Волоколамское шоссе (1984) [MP3]
  • Константин Кривчиков | Кремль 2222. Волоколамское шоссе (2016) [FB2]


    • Комментарии (0):

      Информация

      Информация

        Посетители, находящиеся в группе Гости, не могут оставлять комментарии в данной новости.

        ↓ Меню




        ↓ Опрос

        Вы добавили сайт в закладки?
        Да
        Нет


        Top 10 за месяц (Фильмы)