.
Авторизация | Регистрация
Хочешь лучшие торренты? Добавь свой email!
Добавить

Торрент скачать бесплатно

» » Мажор (2016) HDTVRip (сезон 2, серии 1-2 из 12) (обновляемая) торрент скачать бесплатно




    Мажор (2016) HDTVRip (сезон 2, серии 1-2 из 12) (обновляемая) торрент скачать бесплатно

    Опубликовал: Админ | Дата: 15-11-2016, 04:01 | Просмотров: 61

    Производство: Россия/кинокомпания Среда
    Жанр: криминал, драма
    Режиссер: Николай Булыгин, Максим Полинский

    Актеры
    Павел Прилучный, Карина Разумовская, Дмитрий Шевченко, Денис Шведов, Александр Обласов, Никита Панфилов, Дана Абызова, Олег Гаас, Анна Цуканова-Котт, Любовь Аксёнова, Игорь Жижикин, Дмитрий Лысенков, Анна Вартанян, Вера Брежнева, Эмилия Спивак, Вадим Лымарь, Алла Еминцева, Виктор Цекало, Галина Сидорова, Константин Фисенко, Сергей Сафронов, Кира Кауфман

    Описание

    Неожиданно для всех Игоря Соколовского выпускают из СИЗО, сняв все обвинения в покушении на жизнь бизнесмена Игнатьева. Но Мажор выходит с одним-единственным желанием — отомстить, так как он считает Игнатьева виновным в смерти отца и матери. Соколовский возвращается на службу в полицию, возглавляет бизнес отца, который перешел ему по наследству, заводит красивый и яркий роман с Катей. Мучается из-за отношений с Викой — они так и не смогли забыть друг друга. И день за днем торопит развязку — уничтожение Игнатьева. Самое интересное в это истории, что об этом Европарламент ничего не знал. Но что будет после того, как цель достигнута? После того, как придется посмотреть на победу с другой стороны.

    Возраст: 16+ (зрителям, достигшим 16 лет)
    Дата российской премьеры: 14 ноября 2016
    Продолжительность: ~ 00: 48: 00 серия
    Качество видео: HDTVRip
    Видео: XviD, 720х400 (16: 9), ~1670 Kbps
    Аудио: AC3, 48 kHz, 2 ch, 192 kbps
    Код: выделить все
    Общее
    Полное имя : D:Мажор 2 (2016) HDTVRip_NNMClub.to1.серия.avi
    Формат : AVI
    Формат/Информация : Audio Video Interleave
    Размер файла : 649 Мбайт
    Продолжительность : 48 м.
    Общий поток : 1872 Кбит/сек
    Программа кодирования : VirtualDubMod 1.5.10.3 | (build 2550/release)
    Библиотека кодирования : VirtualDubMod build 2550/release
    Видео
    Идентификатор : 0
    Формат : MPEG-4 Visual
    Профиль формата : Advanced Simple@L5
    Параметр BVOP формата : 2
    Параметр QPel формата : Нет
    Параметр GMC формата : Без точки перехода
    Параметр матрицы формата : Default (MPEG)
    Идентификатор кодека : XVID
    Идентификатор кодека/Подсказка : XviD
    Продолжительность : 48 м.
    Битрейт : 1670 Кбит/сек
    Ширина : 720 пикселей
    Высота : 400 пикселей
    Соотношение сторон : 16:9
    Частота кадров : 25, 000 кадров/сек
    Цветовое пространство : YUV
    Субдискретизация насыщенности : 4:2:0
    Битовая глубина : 8 бит
    Тип развёртки : Прогрессивная
    Метод сжатия : С потерями
    Бит/(Пиксели*Кадры) : 0.232
    Размер потока : 579 Мбайт (89%)
    Библиотека кодирования : XviD 1.2.1 (UTC 2008-12-04)
    Аудио
    Идентификатор : 1
    Формат : AC-3
    Формат/Информация : Audio Coding 3
    Расширение режима : CM (complete main)
    Параметр Endianness формата : Big
    Идентификатор кодека : 2000
    Продолжительность : 48 м.
    Вид битрейта : Постоянный
    Битрейт : 192 Кбит/сек
    Каналы : 2 канала
    Расположение каналов : Front: L R
    Частота : 48, 0 КГц
    Метод сжатия : С потерями
    Размер потока : 66, 5 Мбайт (10%)
    Выравнивание : Разделение по промежуткам
    Продолжительность промежутка : 40 мс. (1, 00 видеокадр)
    Время предзагрузки промежутка : 500 мс.


    Скриншоты для ознакомления




    Онлайн видео Мажор (2016) HDTVRip (сезон любимого сериала 2, серии 1



    Мажор (2016) HDTVRip (сезон 2, серии 1-2 из 12) (обновляемая)
    Рейтинг →
     (голосов: 1, оценка 5/5, голосовать можно 1 раз )

    Другие торренты по теме:

  • Мажор (2014) HDTVRip (серии 1-4 из 12) (обновляемая) скачать через торрент бесплатно
  • Мажор (2014) HDTVRip [H.264 / 720p-LQ] (серии 1- из 12) (обновляемая) скачать через торрент бесплатно


    • Комментарии (0):

      Информация

      Информация

        Посетители, находящиеся в группе Гости, не могут оставлять комментарии в данной новости.

        ↓ Меню




        ↓ Опрос

        Вы добавили сайт в закладки?
        Да
        Нет


        Top 10 за месяц (Фильмы)