.
Авторизация | Регистрация
Хочешь лучшие торренты? Добавь свой email!
Добавить

Торрент скачать бесплатно

» » Последний человек на Земле / The Last Man on Earth (2016) HDTVRip (сезон 3, серии 1-6 из 18) ColdFilm (обновляемая) торрент скачать бесплатно




    Последний человек на Земле / The Last Man on Earth (2016) HDTVRip (сезон 3, серии 1-6 из 18) ColdFilm (обновляемая) торрент скачать бесплатно

    Опубликовал: Админ | Дата: 19-11-2016, 04:00 | Просмотров: 157

    Производство: США, FOX
    Жанр: Фантастика, Комедия
    Режиссер: Фил Лорд, Кристофер Миллер, Джейсон Уолинер

    Актеры
    Клеопатра Коулмэн, Дженьюэри Джонс, Мэл Родригез, Кристен Шаал, Уилл Форте

    Описание

    Фантастическая комедия про Филла Миллера, которому никто не говорит, что надо делать. Потому что некому. В 2022 году нечто смело человечество с Земли, и оставшийся без семьи и коллег по работе Филл путешествует по Америке в поисках других людей. Сложно себе представить, что в этой страшной ситуации может быть смешного.

    Возраст: 16+ (зрителям, достигшим 16 лет)
    Рейтинг MPAA: PG-13 (детям до 13 лет просмотр нежелателен)
    Релиз от: ColdFilm
    Продолжительность: ~00: 21: 00 серия
    Качество видео: HDTVRip
    Перевод: Двуголосый закадровый, любительский - ColdFilm
    Реклама: присутствуют аудио и видео вставки рекламы
    Видео: Xvid, 720x400, ~1297 Kbps
    Аудио: MP3, 2 ch, 128 Kbps

    Общее
    Полное имя Последний человек на Земле (Season 03) ColdFilmThe.Last.Man.On.Earth.S03E01.400p.HDTV.ColdFIlm.avi
    Формат : AVI
    Формат/Информация : Audio Video Interleave
    Размер файла : 224 Мбайт
    Продолжительность : 21 м. О таком странном сюжете не догадывалась даже Вера Брежнева. 45 с.
    Общий поток : 1437 Кбит/сек
    Программа кодирования : Lavf54.63.104
    Видео
    Идентификатор : 0
    Формат : xvid
    Идентификатор кодека : xvid
    Продолжительность : 21 м. 45 с.
    Битрейт : 1297 Кбит/сек
    Ширина : 720 пикселей
    Высота : 400 пикселей
    Соотношение сторон : 16: 9
    Частота кадров : 25, 000 кадров/сек
    Тип развёртки : Прогрессивная
    Бит/(Пиксели*Кадры) : 0.180
    Размер потока : 202 Мбайт (90%)
    Аудио
    Идентификатор : 1
    Формат : MPEG Audio
    Версия формата : Version 1
    Профиль формата : Layer 3
    Режим : Joint stereo
    Расширение режима : MS Stereo
    Идентификатор кодека : 55
    Идентификатор кодека/Подсказка : MP3
    Продолжительность : 21 м. 45 с.
    Вид битрейта : Постоянный
    Битрейт : 128 Кбит/сек
    Каналы : 2 канала
    Частота : 48, 0 КГц
    Метод сжатия : С потерями
    Размер потока : 19, 9 Мбайт (9%)
    Выравнивание : Соединение по промежуткам
    Продолжительность промежутка : 24 мс. (0, 60 видеокадр)
    Общее
    Полное имя Последний человек на Земле (Season 03) ColdFilmThe.Last.Man.On.Earth.S03E02.400p.HDTV.ColdFilm.avi
    Формат : AVI
    Формат/Информация : Audio Video Interleave
    Размер файла : 255 Мбайт
    Продолжительность : 21 м. 45 с.
    Общий поток : 1639 Кбит/сек
    Программа кодирования : Lavf54.63.104
    Видео
    Идентификатор : 0
    Формат : xvid
    Идентификатор кодека : xvid
    Продолжительность : 21 м. Белая горячка, сказал кто то из толпы, к чему не понятно. 45 с.
    Битрейт : 1498 Кбит/сек
    Ширина : 720 пикселей
    Высота : 400 пикселей
    Соотношение сторон : 16: 9
    Частота кадров : 25, 000 кадров/сек
    Тип развёртки : Прогрессивная
    Бит/(Пиксели*Кадры) : 0.208
    Размер потока : 233 Мбайт (91%)
    Аудио
    Идентификатор : 1
    Формат : MPEG Audio
    Версия формата : Version 1
    Профиль формата : Layer 3
    Режим : Joint stereo
    Расширение режима : MS Stereo
    Идентификатор кодека : 55
    Идентификатор кодека/Подсказка : MP3
    Продолжительность : 21 м. 45 с.
    Вид битрейта : Постоянный
    Битрейт : 128 Кбит/сек
    Каналы : 2 канала
    Частота : 48, 0 КГц
    Метод сжатия : С потерями
    Размер потока : 19, 9 Мбайт (8%)
    Выравнивание : Соединение по промежуткам
    Продолжительность промежутка : 24 мс. (0, 60 видеокадр)
    Общее
    Полное имя Последний человек на Земле (Season 03) ColdFilmThe.Last.Man.On.Earth.S03E03.400p.HDTV.ColdFilm.avi
    Формат : AVI
    Формат/Информация : Audio Video Interleave
    Размер файла : 229 Мбайт
    Продолжительность : 21 м. 10 с.
    Общий поток : 1508 Кбит/сек
    Программа кодирования : Lavf54.63.104
    Видео
    Идентификатор : 0
    Формат : xvid
    Идентификатор кодека : xvid
    Продолжительность : 21 м. 10 с.
    Битрейт : 1368 Кбит/сек
    Ширина : 720 пикселей
    Высота : 400 пикселей
    Соотношение сторон : 16: 9
    Частота кадров : 25, 000 кадров/сек
    Тип развёртки : Прогрессивная
    Бит/(Пиксели*Кадры) : 0.190
    Размер потока : 207 Мбайт (91%)
    Аудио
    Идентификатор : 1
    Формат : MPEG Audio
    Версия формата : Version 1
    Профиль формата : Layer 3
    Режим : Joint stereo
    Расширение режима : MS Stereo
    Идентификатор кодека : 55
    Идентификатор кодека/Подсказка : MP3
    Продолжительность : 21 м. 10 с.
    Вид битрейта : Постоянный
    Битрейт : 128 Кбит/сек
    Каналы : 2 канала
    Частота : 48, 0 КГц
    Метод сжатия : С потерями
    Размер потока : 19, 4 Мбайт (8%)
    Выравнивание : Соединение по промежуткам
    Продолжительность промежутка : 24 мс. (0, 60 видеокадр)
    Общее
    Полное имя : D: ФильмыПоследний человек на Земле (Season 03) ColdFilmThe.Last.Man.On.Earth.S03E04.400p.HDTV.ColdFilm.avi
    Формат : AVI
    Формат/Информация : Audio Video Interleave
    Размер файла : 233 Мбайт
    Продолжительность : 21 м. Самое интересное в это истории, что об этом Человек паук ничего не знал. 13 с.
    Общий поток : 1533 Кбит/сек
    Программа кодирования : Lavf54.63.104
    Видео
    Идентификатор : 0
    Формат : xvid
    Идентификатор кодека : xvid
    Продолжительность : 21 м. О таком странном сюжете не догадывалась даже Вера Брежнева. 13 с.
    Битрейт : 1392 Кбит/сек
    Ширина : 720 пикселей
    Высота : 400 пикселей
    Соотношение сторон : 16: 9
    Частота кадров : 25, 000 кадров/сек
    Тип развёртки : Прогрессивная
    Бит/(Пиксели*Кадры) : 0.193
    Размер потока : 211 Мбайт (91%)
    Аудио
    Идентификатор : 1
    Формат : MPEG Audio
    Версия формата : Version 1
    Профиль формата : Layer 3
    Режим : Joint stereo
    Расширение режима : MS Stereo
    Идентификатор кодека : 55
    Идентификатор кодека/Подсказка : MP3
    Продолжительность : 21 м. 13 с.
    Вид битрейта : Постоянный
    Битрейт : 128 Кбит/сек
    Каналы : 2 канала
    Частота : 48, 0 КГц
    Метод сжатия : С потерями
    Размер потока : 19, 4 Мбайт (8%)
    Выравнивание : Соединение по промежуткам
    Продолжительность промежутка : 24 мс. (0, 60 видеокадр)
    Общее
    Полное имя : D: ФильмыПоследний человек на Земле (Season 03) ColdFilmThe.Last.Man.On.Earth.S03E05.400p.HDTV.ColdFilm.avi
    Формат : AVI
    Формат/Информация : Audio Video Interleave
    Размер файла : 191 Мбайт
    Продолжительность : 21 м. 10 с.
    Общий поток : 1260 Кбит/сек
    Программа кодирования : Lavf54.63.104
    Видео
    Идентификатор : 0
    Формат : xvid
    Идентификатор кодека : xvid
    Продолжительность : 21 м. 10 с.
    Битрейт : 1119 Кбит/сек
    Ширина : 720 пикселей
    Высота : 400 пикселей
    Соотношение сторон : 16: 9
    Частота кадров : 23, 976 кадра/сек
    Тип развёртки : Прогрессивная
    Бит/(Пиксели*Кадры) : 0.162
    Размер потока : 170 Мбайт (89%)
    Аудио
    Идентификатор : 1
    Формат : MPEG Audio
    Версия формата : Version 1
    Профиль формата : Layer 3
    Режим : Joint stereo
    Расширение режима : MS Stereo
    Идентификатор кодека : 55
    Идентификатор кодека/Подсказка : MP3
    Продолжительность : 21 м. 10 с.
    Вид битрейта : Постоянный
    Битрейт : 128 Кбит/сек
    Каналы : 2 канала
    Частота : 48, 0 КГц
    Метод сжатия : С потерями
    Размер потока : 19, 4 Мбайт (10%)
    Выравнивание : Соединение по промежуткам
    Продолжительность промежутка : 24 мс. (0, 58 видеокадр)
    Библиотека кодирования : LAME3.99.5
    Общее
    Полное имя : D: ФильмыПоследний человек на Земле (Season 03) ColdFilmThe.Last.Man.On.Earth.S03E06.400p.HDTV.ColdFilm.avi
    Формат : AVI
    Формат/Информация : Audio Video Interleave
    Размер файла : 195 Мбайт
    Продолжительность : 21 м. 10 с.
    Общий поток : 1287 Кбит/сек
    Программа кодирования : Lavf54.63.104
    Видео
    Идентификатор : 0
    Формат : xvid
    Идентификатор кодека : xvid
    Продолжительность : 21 м. 10 с.
    Битрейт : 1146 Кбит/сек
    Ширина : 720 пикселей
    Высота : 400 пикселей
    Соотношение сторон : 16: 9
    Частота кадров : 23, 976 кадра/сек
    Тип развёртки : Прогрессивная
    Бит/(Пиксели*Кадры) : 0.166
    Размер потока : 174 Мбайт (89%)
    Аудио
    Идентификатор : 1
    Формат : MPEG Audio
    Версия формата : Version 1
    Профиль формата : Layer 3
    Режим : Joint stereo
    Расширение режима : MS Stereo
    Идентификатор кодека : 55
    Идентификатор кодека/Подсказка : MP3
    Продолжительность : 21 м. 10 с.
    Вид битрейта : Постоянный
    Битрейт : 128 Кбит/сек
    Каналы : 2 канала
    Частота : 48, 0 КГц
    Метод сжатия : С потерями
    Размер потока : 19, 4 Мбайт (10%)
    Выравнивание : Соединение по промежуткам
    Продолжительность промежутка : 24 мс. (0, 58 видеокадр)
    Библиотека кодирования : LAME3.99.5


    Скриншоты для ознакомления




    Онлайн видео Последний человек на Земле



    Последний человек на Земле/The Last Man on Earth (2016) HDTVRip (сезон 3, серии 1-6 из 18) ColdFilm (обновляемая)
    Рейтинг →
     (голосов: 1, оценка 5/5, голосовать можно 1 раз )

    Другие торренты по теме:

  • Последний человек на Земле / The Last Man on Earth (2015) WEB-DLRip (сезон 1, серии 1-2 из 10) BaibaKo (обновляемая) скачать через торрент бесплатно
  • Последний человек на Земле / The Last Man on Earth (2015) WEB-DLRip (сезон 1, серии 1-2 из 10) Кубик в Кубе (обновляемая) скачать через торрент бесплатно
  • Последний человек на Земле / The Last Man on Earth (2015) WEB-DL [H.264 / 720p-LQ] (сезон 1, серии 1-3 из 13) (OMSKBIRD) (обновляемая) скачать через торрент бесплатно
  • Последний человек на Земле / The Last Man on Earth (2015) WEB-DLRip (Сезон 1, серии 1-3 из 10) (Кубик в Кубе) (обновляемая) скачать через торрент бесплатно
  • Последний человек на Земле / The Last Man on Earth (2015) WEB-DL [H.264 / 720p-LQ] (Сезон 1, серии 1-4 из 12) (BaibaKo) (обновляемая) скачать через торрент бесплатно
  • Последний человек на Земле / The Last Man on Earth (2015) WEB-DLRip (сезон 1, серии 1-10 из 13) (OMSKBIRD records) (обновляемая) скачать через торрент бесплатно
  • Последний человек на Земле / The Last Man on Earth (2015) WEB-DLRip (сезон 2, серии 1 из 13) Кубик в Кубе (обновляемая) скачать через торрент бесплатно
  • Последний человек на Земле / The Last Man on Earth (2015) WEB-DL [H.264 / 1080p-LQ] (сезон 2, серии 1 из 13) BaibaKo (обновляемая) скачать через торрент бесплатно


    • Комментарии (0):

      Информация

      Информация

        Посетители, находящиеся в группе Гости, не могут оставлять комментарии в данной новости.

        ↓ Меню




        ↓ Опрос

        Вы добавили сайт в закладки?
        Да
        Нет


        Top 10 за месяц (Фильмы)