.
Авторизация | Регистрация
Хочешь лучшие торренты? Добавь свой email!
Добавить

Торрент скачать бесплатно

» » Салем / Salem (2016) WEB-DL [H.264 / 720p-LQ] (сезон 3, серии 01-03 из 13) LostFilm (обновляемая) торрент скачать бесплатно



    Салем / Salem (2016) WEB-DL [H.264 / 720p-LQ] (сезон 3, серии 01-03 из 13) LostFilm (обновляемая) торрент скачать бесплатно

    Опубликовал: Админ | Дата: 24-11-2016, 04:00 | Просмотров: 34

    Производство: США
    Жанр: Фантастика, Триллер, Драма
    Режиссер: Ричард Шепард

    Актеры
    Шэйн Уэст, Джанет Монтгомери, Эжур Дэун, Моргана Шоу, Сет Гейбл, Ксандер Беркли, Эшли Мадекве, Элиз Эберли, Джон Артур, Кристофер Берри и др.

    Описание

    Сериал раскрывает темную, сверхъестественную правду о Салеме — городе ведьм. В центре сериала Салем — эпическая любовная драма в контексте позорного периода кровожадных судов над ведьмами в Америке. Это совершенно новый взгляд на Салем и более чем смелый взгляд на ведьм. В ногах правды нет, сказал кто то из толпы, к чему не понятно. Главный герой сериала — Джон Олден — красивый, жесткий, прагматичный ветеран, закаленный десятью годами на войне и побывавший в плену у индейцев. Он возвращается в родной город Салем и оказывается вовлеченным в жестокую охоту на ведьм.

    Релиз от: GeneralFilm
    Продолжительность: ~00: 47: 00 серия
    Качество видео: WEB-DLRip
    Перевод: Многоголосый закадровый, профессиональный -LostFilm
    Вид субтитров: Вшитые отключаемые
    Язык субтитров: Английские
    Реклама: Отсутствует
    Видео: AVC/H.264, 1280x718(16: 9) , ~4000 kbps
    Аудио Rus: AC-3, 48.0 KHz, 2 ch, 384 Kbps- многоголосый закадровый
    Аудио Eng: AC-3, 48.0 KHz, 6 ch, 384 Kbps - оригинал
    Аудио Eng: AАC, 48.0 KHz, 2 ch, 160 Kbps - оригинал

    General
    Unique ID : 234858858184038957317059551875772333374 (0xB0B02BB775B2006980A2E9903A123D3E)
    Complete name : D: ТоррентыSalem.S03.720p.WEB-DL.Rus.Eng.Salem.S03E01.720p.WEB-DL.Rus.Eng.Generalfilm.mkv
    Format : Matroska
    File size : 1.68 GiB
    Duration : 47mn 50s
    Overall bit rate : 5 020 Kbps
    Encoded date : UTC 2016-11-07 08: 30: 41
    Writing application : mkvmerge v4.2.0 (\'No Talking\') сборка от Jul 28 2010 18: 38: 23
    Writing library : libebml v1.0.0 + libmatroska v1.0.0
    Video
    ID : 1
    Format : AVC
    Format/Info : Advanced Video Codec
    Format profile : High@L3.1
    Format settings, CABAC : No
    Format settings, ReFrames : 2 frames
    Muxing mode : Header stripping
    Codec ID : V_MPEG4/ISO/AVC
    Duration : 47mn 50s
    Width : 1 280 pixels
    Height : 718 pixels
    Display aspect ratio : 16: 9
    Frame rate : 23.976 fps
    Color space : YUV
    Chroma subsampling : 4: 2: 0
    Bit depth : 8 bits
    Scan type : Progressive
    Language : English
    Color primaries : BT.709-5, BT.1361, IEC 61966-2-4, SMPTE RP177
    Transfer characteristics : BT.709-5, BT.1361
    Matrix coefficients : BT.709-5, BT.1361, IEC 61966-2-4 709, SMPTE RP177
    Audio #1
    ID : 2
    Format : AC-3
    Format/Info : Audio Coding 3
    Mode extension : CM (complete main)
    Muxing mode : Header stripping
    Codec ID : A_AC3
    Duration : 47mn 50s
    Bit rate mode : Constant
    Bit rate : 384 Kbps
    Channel(s) : 2 channels
    Channel positions : Front: L R
    Sampling rate : 48.0 KHz
    Bit depth : 16 bits
    Compression mode : Lossy
    Stream size : 131 MiB (8%)
    Language : Russian
    Audio #2
    ID : 3
    Format : AC-3
    Format/Info : Audio Coding 3
    Mode extension : CM (complete main)
    Muxing mode : Header stripping
    Codec ID : A_AC3
    Duration : 47mn 50s
    Bit rate mode : Constant
    Bit rate : 384 Kbps
    Channel(s) : 6 channels
    Channel positions : Front: L C R, Side: L R, LFE
    Sampling rate : 48.0 KHz
    Bit depth : 16 bits
    Compression mode : Lossy
    Stream size : 131 MiB (8%)
    Language : English
    Audio #3
    ID : 4
    Format : AAC
    Format/Info : Advanced Audio Codec
    Format profile : LC
    Codec ID : A_AAC
    Duration : 47mn 50s
    Channel(s) : 2 channels
    Channel positions : Front: L R
    Sampling rate : 48.0 KHz
    Compression mode : Lossy
    Language : English
    Text
    ID : 5
    Format : UTF-8
    Codec ID : S_TEXT/UTF8
    Codec ID/Info : UTF-8 Plain Text
    Language : English


    Скриншоты для ознакомления



    Прямая ссылка скачивания через uTorrent


    Салем/Salem (2016) WEB-DL [H.264/720p-LQ] (сезон 3, серии 01-03 из 13) LostFilm (обновляемая)
    Рейтинг →
     (голосов: 1, оценка 5/5, голосовать можно 1 раз )

    Другие торренты по теме:

  • Салем / Salem (2015) WEB-DLRip (сезон 2, серии 1 из ) NewStudio (обновляемая) скачать через торрент бесплатно
  • Салем / Salem (2015) WEB-DLRip (сезон 2, серии 1 из 13) LostFilm (обновляемая) скачать через торрент бесплатно
  • Салем / Salem (2015) WEB-DL [H.264 / 720p-LQ] (сезон 2, серии 1 из 13) (AlexFilm) (обновляемая) скачать через торрент бесплатно
  • Салем / Salem (2015) WEB-DLRip (сезон 2, серии 1 из 13) AlexFilm (обновляемая) скачать через торрент бесплатно
  • Салем / Salem (2015) WEB-DL [H.264 / 1080p-LQ] (сезон 2, серии 1 из 13) (LostFilm, NewStudio, AlexFilm) (обновляемая) скачать через торрент бесплатно
  • Салем / Salem (2015) WEB-DLRip [H.264] (Сезон 2, серии 1-6 из 13) BaibaKo [MP4|720x400] скачать через торрент бесплатно
  • Салем / Salem (2016) WEB-DLRip (Сезон 3, Серии 01-03 из 13) LostFilm (обновляемая)
  • Салем / Salem (2016) WEB-DL [H.264 / 720p-LQ] (сезон 3, серии 01-03 из 13) NewStudio (обновляемая)


    • Комментарии (0):

      Информация

      Информация

        Посетители, находящиеся в группе Гости, не могут оставлять комментарии в данной новости.

        ↓ Меню




        ↓ Опрос

        Вы добавили сайт в закладки?
        Да
        Нет


        Top 10 за месяц (Фильмы)