.
Авторизация | Регистрация
Хочешь лучшие торренты? Добавь свой email!
Добавить

Торрент скачать бесплатно

» » Королевство / Kingdom (2017) HDTVRip (сезон 3, серии 1 из 10) OmskBird (обновляемая) [AD] торрент скачать бесплатно




    Королевство / Kingdom (2017) HDTVRip (сезон 3, серии 1 из 10) OmskBird (обновляемая) [AD] торрент скачать бесплатно

    Опубликовал: Админ | Дата: 3-06-2017, 05:00 | Просмотров: 0

    Производство: США
    Жанр: Драма, Боевик
    Режиссер: Адам Дэвидсон, Гэри Фледер, Дэнни Гордон

    Актеры
    Фрэнк Грилло, Киле Санчез, Мэтт Лауриа, Джонатан Такер, Ник Джонас, Пол Уолтер Хаузер, Джульетт Джексон, Джо П. Харрис, Джоанна Гоуинг, Ронни Джин Блевинс

    Описание

    Алви и Лиза изо всех сил стараются удержать на плаву их тренажерный зал. Их главная надежда — это сын Алви, Нейт, перспективный боец. Другой сын Алви, Джей, в ссоре с отцом. Ситуация осложняется, когда появляется бывший парень Лизы, он же бывший чемпион MMA, Райан.

    Возраст: 18+ (зрителям, достигшим 18 лет. запрещено для детей)
    Релиз от: OmskBird
    Продолжительность: ~00: 45: 00 серия
    Качество видео: HDTVRip
    Перевод: Многоголосый закадровый, профессиональный
    Субтитры: отсутствуют
    Реклама: присутствуют аудио вставки рекламы
    Видео: Xvid, 720x400 (1.80: 1), ~1207 kbps
    Аудио # 1: AC3, 2 ch, 192 Kbps - русский, многоголосый закадровый
    Аудио # 2: AC3, 2 ch, 192 Kbps - английский

    General
    Complete name : G: FilmsKingdom.S03.HDTVRip.OmskBirdKingdom.S03E01.HDTVRip.OmskBird.avi
    Format : AVI
    Format/Info : Audio Video Interleave
    File size : 568 MiB
    Duration : 49mn 25s
    Overall bit rate : 1 606 Kbps
    Writing application : VirtualDubMod 1.5.10.3 (build 2550/release)
    Writing library : VirtualDubMod build 2550/release
    Video
    ID : 0
    Format : MPEG-4 Visual
    Format profile : Advanced Simple@L5
    Format settings, BVOP : 1
    Format settings, QPel : No
    Format settings, GMC : No warppoints
    Format settings, Matrix : Default (MPEG)
    Codec ID : XVID
    Codec ID/Hint : XviD
    Duration : 49mn 25s
    Bit rate : 1 208 Kbps
    Width : 720 pixels
    Height : 400 pixels
    Display aspect ratio : 16: 9
    Frame rate : 23.976 (23976/1000) fps
    Color space : YUV
    Chroma subsampling : 4: 2: 0
    Bit depth : 8 bits
    Scan type : Progressive
    Compression mode : Lossy
    Bits/(Pixel*Frame) : 0.175
    Stream size : 427 MiB (75%)
    Writing library : XviD 73
    Audio #1
    ID : 1
    Format : AC-3
    Format/Info : Audio Coding 3
    Mode extension : CM (complete main)
    Format settings, Endianness : Big
    Codec ID : 2000
    Duration : 49mn 25s
    Bit rate mode : Constant
    Bit rate : 192 Kbps
    Channel(s) : 2 channels
    Channel positions : Front: L R
    Sampling rate : 48.0 KHz
    Frame rate : 31.250 fps (1536 spf)
    Compression mode : Lossy
    Stream size : 67.9 MiB (12%)
    Alignment : Split accross interleaves
    Interleave, duration : 42 ms (1.00 video frame)
    Interleave, preload duration : 500 ms
    Audio #2
    ID : 2
    Format : AC-3
    Format/Info : Audio Coding 3
    Mode extension : CM (complete main)
    Format settings, Endianness : Big
    Codec ID : 2000
    Duration : 49mn 25s
    Bit rate mode : Constant
    Bit rate : 192 Kbps
    Channel(s) : 2 channels
    Channel positions : Front: L R
    Sampling rate : 48.0 KHz
    Frame rate : 31.250 fps (1536 spf)
    Compression mode : Lossy
    Stream size : 67.9 MiB (12%)
    Alignment : Split accross interleaves
    Interleave, duration : 42 ms (1.00 video frame)
    Interleave, preload duration : 500 ms


    Скриншоты для ознакомления




    Онлайн видео Королевство



    Королевство/Kingdom (2017) HDTVRip (сезон 3, серии 1 из 10) OmskBird (обновляемая) [AD]
    Рейтинг →
     (голосов: 1, оценка 3/5, голосовать можно 1 раз )

    Другие торренты по теме:

  • Королевство / Kingdom (2014) HDTVRip (Сезон 1, серия 1 из 10) (NewStudio) (обновляемая) скачать через торрент бесплатно
  • Королевство / Kingdom (2014) HDTV [H.264 / 720p-LQ] (Сезон 1, серии 1-4 из 10) (NewStudio) (обновляемая) скачать через торрент бесплатно
  • Королевство / Kingdom (2015) WEB-DLRip (сезон 2, серии 1 из 10) NewStudio (обновляемая) скачать через торрент бесплатно
  • Королевство / Kingdom (2015) WEB-DL [H.264 / 720p-LQ] (сезон 2, серия 1 из 10) (NewStudio) (обновляемая) скачать через торрент бесплатно
  • Королевство / Kingdom (2016) HDTVRip (сезон 2, серии 11 из 20) OMSKBIRD records (обновляемая)
  • Королевство / Kingdom (2016) HDTVRip [H.264 / 720p-LQ] (сезон 2, серии 11 из 20) OMSKBIRD records (обновляемая)
  • Королевство / Kingdom (2015) WEB-DLRip (сезон 2, серии 1-11 из 20) NewStudio (обновляемая)
  • Королевство / Kingdom (2015) WEB-DL [H.264 / 720p-LQ] (сезон 2, серии 1-11 из 20) NewStudio (обновляемая)


    • Комментарии (0):

      Информация

      Информация

        Посетители, находящиеся в группе Гости, не могут оставлять комментарии в данной новости.

        ↓ Меню




        ↓ Опрос

        Вы добавили сайт в закладки?
        Да
        Нет


        Top 10 за месяц (Фильмы)