.
Авторизация | Регистрация
Хочешь лучшие торренты? Добавь свой email!
Добавить

Торрент скачать бесплатно

» » Зеленый значит опасность / Green for Danger (1946) DVDRip [H.264] [AVO] торрент скачать бесплатно




    Зеленый значит опасность / Green for Danger (1946) DVDRip [H.264] [AVO] торрент скачать бесплатно

    Опубликовал: Админ | Дата: 5-06-2017, 05:00 | Просмотров: 0

    Производство: Великобритания/Individual Pictures
    Жанр: Фильм-Нуар, Триллер, Криминал, Детектив
    Режиссер: Сидни Гиллиат
    Продюсер: Сидни Гиллиат, Фрэнк Лондер, Херберт Смит

    Актеры
    Лео Генн, Генри Эдвардс, Тревор Ховард, Рональд Адам, Джуди Кэмпбелл, Венди Томпсон, Розамунд Джон, Сэлли Грэй, Мегс Дженкинс, Джон Рэй

    Описание

    Действие происходит в годы Второй мировой в маленькой больнице, регулярно подвергающейся авианалётам. Жертва одного из них, местный почтальон, умирает прямо на операционном столе. О таком странном сюжете не догадывалась даже Бейонсе. Потом убивают истеричную медсестру, что-то прознавшую. И тогда на место преступления прибывает инспектор Кокрилл. Прикольно все это наверно придумал Чак Норрис потратив достаточно времени. Выясняется, что у всего персонала хватает тёмных пятен в прошлом и настоящем, атмосфера накаляется, врачи и медсёстры в открытую подозревают друг друга, а бравый инспектор уже разрабатывает операцию по разоблачению убийцы.

    Возраст: этот продукт не был классифицирован
    Рейтинг MPAA: этот продукт не был классифицирован
    Продолжительность: 01: 31: 36
    Качество видео: DVDRip
    Перевод: Одноголосый закадровый (Дмитрий Есарев)
    Субтитры: отсутствуют
    Видео: AVC/H.264, 592х448, ~1950, ~ 0.307 bit/pixel
    Аудио 1: AC3, 1 ch, 96 Kbps, 48.0 kHz - Русский
    Аудио 2: AC3, 1 ch, 96 Kbps, 48.0 kHz - Английский

    Общее
    Уникальный идентификатор : 321213106152150099706676984129456674944 (0xF1A764DB023438C982311D39EA7F9880)
    Полное имя : C: UsersМихаилVideosЗелёный значит опасность(1946).mkv
    Формат : Matroska
    Версия формата : Version 4/Version 2
    Размер файла : 1, 37 Гбайт
    Продолжительность : 1 ч. 31 м.
    Режим общего битрейта : Постоянный
    Общий поток : 2144 Кбит/сек
    Дата кодирования : UTC 2017-05-27 15: 52: 40/UTC 2017-05-27 15: 52: 40
    Программа кодирования : Lavf56.36.100
    Библиотека кодирования : Lavf56.36.100/Lavf56.36.100
    Видео
    Идентификатор : 3
    Формат : AVC
    Формат/Информация : Advanced Video Codec
    Профиль формата : Main@L3
    Параметр CABAC формата : Да
    Параметр ReFrames формата : 2 кадра
    Параметр GOP формата : M=1, N=25
    Идентификатор кодека : V_MPEG4/ISO/AVC
    Продолжительность : 1 ч. 31 м.
    Вид битрейта : Постоянный
    Битрейт : 1950 Кбит/сек
    Ширина : 592 пикселя
    Высота : 448 пикселей
    Соотношение сторон : 4: 3
    Режим частоты кадров : Постоянный
    Частота кадров : 23, 976 (24000/1001) кадра/сек
    Цветовое пространство : YUV
    Субдискретизация насыщенности : 4: 2: 0
    Битовая глубина : 8 бит
    Тип развёртки : Прогрессивная
    Бит/(Пиксели*Кадры) : 0.307
    Размер потока : 1, 22 Гбайт (89%)
    Default : Да
    Forced : Нет
    Аудио #1
    Идентификатор : 1
    Формат : AC-3
    Формат/Информация : Audio Coding 3
    Расширение режима : CM (complete main)
    Параметр Endianness формата : Big
    Идентификатор кодека : A_AC3
    Продолжительность : 1 ч. 31 м.
    Вид битрейта : Постоянный
    Битрейт : 96, 0 Кбит/сек
    Каналы : 1 канал
    Расположение каналов : Front: C
    Частота : 48, 0 КГц
    Частота кадров : 31, 250 кадров/сек (1536 spf)
    Битовая глубина : 32 бит
    Метод сжатия : С потерями
    Размер потока : 62, 9 Мбайт (4%)
    Default : Да
    Forced : Нет
    Аудио #2
    Идентификатор : 2
    Формат : AC-3
    Формат/Информация : Audio Coding 3
    Расширение режима : CM (complete main)
    Параметр Endianness формата : Big
    Идентификатор кодека : A_AC3
    Продолжительность : 1 ч. 31 м.
    Вид битрейта : Постоянный
    Битрейт : 96, 0 Кбит/сек
    Каналы : 1 канал
    Расположение каналов : Front: C
    Частота : 48, 0 КГц
    Частота кадров : 31, 250 кадров/сек (1536 spf)
    Битовая глубина : 32 бит
    Метод сжатия : С потерями
    Размер потока : 62, 9 Мбайт (4%)
    Default : Да
    Forced : Нет


    Скриншоты для ознакомления




    Онлайн видео Зеленый значит опасность



    Зеленый значит опасность/Green for Danger (1946) DVDRip [H.264] [AVO]
    Рейтинг →
     (голосов: 1, оценка 4/5, голосовать можно 1 раз )

    Другие торренты по теме:

  • Зеленый фургон (1959) DVDRip [H.264]
  • Сын Хамас (Зеленый принц) / The Green Prince (2014) TVRip [EN / RUS Sub] скачать через торрент бесплатно
  • Зеленый ад / The Green Inferno (2013) WEB-DL [H.264 / 720p-LQ] [EN] скачать через торрент бесплатно
  • Зеленый ад / The Green Inferno (2013) WEB-DLRip [VO] скачать через торрент бесплатно
  • Зеленый ад / The Green Inferno (2013) WEBRip [H.264 / 720p] [Трейлер] скачать через торрент бесплатно
  • Зеленый рай / Green Paradise (2007) HDTV [H.264 / 1080i] (20 серий из 20) скачать через торрент бесплатно
  • Аскольд Якубовский (сост.) | Зеленый поезд (1976) [FB2] скачать через торрент бесплатно
  • Зеленый огонек / Зелений вогник (2013) SATRip-AVC [Ukr] скачать через торрент бесплатно


    • Комментарии (0):

      Информация

      Информация

        Посетители, находящиеся в группе Гости, не могут оставлять комментарии в данной новости.

        ↓ Меню




        ↓ Опрос

        Вы добавили сайт в закладки?
        Да
        Нет


        Top 10 за месяц (Фильмы)