.
Авторизация | Регистрация
Хочешь лучшие торренты? Добавь свой email!
Добавить

Торрент скачать бесплатно

» » Игла (1988) DVD5 [Реставрация] торрент скачать бесплатно




    Игла (1988) DVD5 [Реставрация] торрент скачать бесплатно

    Опубликовал: Админ | Дата: 6-06-2017, 05:00 | Просмотров: 3

    Производство: CCCP, Студия Казахфильм
    Жанр: Драма
    Режиссер: Рашид Нугманов

    Актеры
    Виктор Цой, Марина Смирнова, Петр Мамонов, Александр Баширов, Архимед Искаков, Геннадий Люй, Александр Конкс, Рахимжан Абдыкадыров, Райхан Канатбаев, Айхан Чатаева

    Описание

    Вернувшись в Алма-Ату, Моро не хочет, чтобы родители знали о его приезде, и в поисках временного пристанища вспоминает о девушке, которую он когда-то любил. Дина рада встрече, но Моро что-то настораживает в ней. Наблюдая за ее странными знакомыми, Моро понимает, что Дина стала наркоманкой. Как спасти девушку? Моро увозит ее к морю, где Дина начинает выздоравливать. Однако после возвращения в город все начинается сначала. Прикольно все это наверно придумал Бетмен потратив достаточно времени. Моро решает расправиться с поставщиками наркотиков…

    Возраст: 16+ (зрителям, достигшим 16 лет)
    Релиз от: smithland
    Продолжительность: 01: 16: 40
    Качество видео: DVD5
    Видео: MPEG-2, 704x480@853x480, ~6649 kb/s
    Аудио: AC3, 2 ch, 256 kbps

    General
    Complete name : Игла
    Format : MPEG-PS
    File size : 3.77 GiB
    Duration : 1 h 16 min
    Overall bit rate mode : Variable
    Overall bit rate : 7 045 kb/s
    Video
    ID : 224 (0xE0)
    Format : MPEG Video
    Format version : Version 2
    Format profile : Main@Main
    Format settings, BVOP : Yes
    Format settings, Matrix : Default
    Format settings, GOP : M=3, N=12
    Duration : 1 h 16 min
    Bit rate mode : Variable
    Bit rate : 6 649 kb/s
    Maximum bit rate : 9 200 kb/s
    Width : 704 pixels
    Height : 480 pixels
    Display aspect ratio : 16: 9
    Frame rate : 29.970 (30000/1001) FPS
    Standard : Component
    Color space : YUV
    Chroma subsampling : 4: 2: 0
    Bit depth : 8 bits
    Scan type : Progressive
    Compression mode : Lossy
    Bits/(Pixel*Frame) : 0.657
    Time code of first frame : 00: 00: 00: 00
    Time code source : Group of pictures t_head
    GOP, Open/Closed : Closed
    Stream size : 3.56 GiB (94%)
    Color primaries : BT.601 NTSC
    Transfer characteristics : BT.601
    Matrix coefficients : BT.601
    Audio
    ID : 189 (0xBD)-128 (0x80)
    Format : AC-3
    Format/Info : Audio Coding 3
    Mode extension : CM (complete main)
    Format settings, Endianness : Big
    Muxing mode : DVD-Video
    Duration : 1 h 16 min
    Bit rate mode : Constant
    Bit rate : 256 kb/s
    Channel(s) : 2 channels
    Channel positions : Front: L R
    Sampling rate : 48.0 kHz
    Frame rate : 31.250 FPS (1536 spf)
    Bit depth : 16 bits
    Compression mode : Lossy
    Delay relative to video : -34 ms
    Stream size : 140 MiB (4%)


    Скриншоты для ознакомления




    Игла (1988) DVD5 [Реставрация]
    Рейтинг →
     (голосов: 1, оценка 5/5, голосовать можно 1 раз )

    Другие торренты по теме:

  • Время покажет с Петром Толстым. Нефтяная игла (02.02.2016) SATRip
  • Морис Леблан | Полая игла (2014) [MP3]


    • Комментарии (0):

      Информация

      Информация

        Посетители, находящиеся в группе Гости, не могут оставлять комментарии в данной новости.

        ↓ Меню




        ↓ Опрос

        Вы добавили сайт в закладки?
        Да
        Нет


        Top 10 за месяц (Фильмы)