.
Авторизация | Регистрация
Хочешь лучшие торренты? Добавь свой email!
Добавить

Торрент скачать бесплатно

» » Сердце дракона 4 / Dragonheart: Battle for the Heartfire (2017) BDRip [H.264 / 1080p] [EN / EN Sub] торрент скачать бесплатно




    Сердце дракона 4 / Dragonheart: Battle for the Heartfire (2017) BDRip [H.264 / 1080p] [EN / EN Sub] торрент скачать бесплатно

    Опубликовал: Админ | Дата: 12-06-2017, 05:00 | Просмотров: 0

    Производство: США, Castel Film Romania, Universal 1440 Entertainment
    Жанр: Фэнтези
    Режиссер: Патрик Сиверсен
    Продюсер: Раффаэлла Де Лаурентис

    Актеры
    Патрик Стюарт, Том Рис Харрис, Джессамин-Блисс Белл, Тэмзин Мёрчант, Андре Эриксен, Ричард Кордери, Мартин Хатсон, Делрой Браун, Тёрло Конвери, Льюис Маккиннон ...

    Описание

    Король Гарет умирает, что теперь будет с драконом, отдавшим ему часть своего сердца? Станут ли потомки короля достойными продолжателями его славных дел, и какой дар будет у каждого из них?

    Рейтинг MPAA: PG-13 (детям до 13 лет просмотр нежелателен)
    Премьера (мир): 13 июня 2017
    Продолжительность: 01: 37: 45
    Качество видео: BDRip 1080p
    Перевод: Отсутствует
    Язык озвучки: Английский
    Субтитры: Английские (отдельным файлом)
    Видео: AVC, 1920x1080 (16: 9), 23.976 fps, 9 697 Kbps (0.195 bit/pixel)
    Аудио: DTS, 48.0 KHz, 6 ch, 1 510 Kbps, CBR (English)
    General
    Complete name : Dragonheart.Battle.for.the.Heartfire.2017.1080p.BluRay.x264.mkv
    Format : Matroska
    Format version : Version 4/Version 2
    File size : 7.64 GiB
    Duration : 1 h 37 min
    Overall bit rate : 11.2 Mb/s
    Encoded date : UTC 2017-06-07 05: 25: 03
    Writing application : mkvmerge v8.3.0 (\'Over the Horizon\') 64bit
    Writing library : libebml v1.3.1 + libmatroska v1.4.2
    Video
    ID : 1
    Format : AVC
    Format/Info : Advanced Video Codec
    Format profile : High@L4.1
    Format settings, CABAC : Yes
    Format settings, ReFrames : 4 frames
    Codec ID : V_MPEG4/ISO/AVC
    Duration : 1 h 37 min
    Bit rate : 9 697 kb/s
    Width : 1 920 pixels
    Height : 1 080 pixels
    Display aspect ratio : 16: 9
    Frame rate mode : Constant
    Frame rate : 23.976 FPS
    Color space : YUV
    Chroma subsampling : 4: 2: 0
    Bit depth : 8 bits
    Scan type : Progressive
    Bits/(Pixel*Frame) : 0.195
    Stream size : 6.61 GiB (86%)
    Writing library : x264 core 150 r2829 d1fe6fd
    Encoding settings : cabac=1/ref=4/deblock=1: 0: 0/analyse=0x3: 0x133/me=umh/subme=7/psy=1/psy_rd=1.00: 0.00/mixed_ref=1/me_range=16/chroma_me=1/trellis=1/8x8dct=1/cqm=0/deadzone=21, 11/fast_pskip=0/chroma_qp_offset=-2/threads=12/lookahead_threads=2/sliced_threads=0/nr=0/decimate=1/interlaced=0/bluray_compat=0/constrained_intra=0/bframes=3/b_pyramid=2/b_adapt=1/b_bias=0/direct=1/weightb=1/open_gop=0/weightp=2/keyint=250/keyint_min=23/scenecut=40/intra_refresh=0/rc_lookahead=40/rc=2pass/mbtree=1/bitrate=9697/ratetol=1.0/qcomp=0.60/qpmin=0/qpmax=69/qpstep=4/cplxblur=20.0/qblur=0.5/ip_ratio=1.40/aq=1: 1.00
    Language : English
    Default : Yes
    Forced : No
    Audio
    ID : 2
    Format : DTS
    Format/Info : Digital Theater Systems
    Mode : 16
    Format settings, Endianness : Big
    Codec ID : A_DTS
    Duration : 1 h 37 min
    Bit rate mode : Constant
    Bit rate : 1 509 kb/s
    Channel(s) : 6 channels
    Channel positions : Front: L C R, Side: L R, LFE
    Sampling rate : 48.0 kHz
    Frame rate : 93.750 FPS (512 spf)
    Bit depth : 24 bits
    Compression mode : Lossy
    Stream size : 1.03 GiB (13%)
    Language : English
    Default : Yes
    Forced : No
    Menu
    00: 00: 00.000 : en: 00: 00: 00.000
    00: 03: 39.344 : en: 00: 03: 39.344
    00: 07: 40.502 : en: 00: 07: 40.502
    00: 13: 19.298 : en: 00: 13: 19.298
    00: 19: 46.602 : en: 00: 19: 46.602
    00: 24: 57.621 : en: 00: 24: 57.621
    00: 30: 13.186 : en: 00: 30: 13.186
    00: 35: 54.652 : en: 00: 35: 54.652
    00: 39: 54.350 : en: 00: 39: 54.350
    00: 45: 37.109 : en: 00: 45: 37.109
    00: 48: 57.560 : en: 00: 48: 57.560
    00: 51: 23.831 : en: 00: 51: 23.831
    00: 56: 22.588 : en: 00: 56: 22.588
    01: 00: 07.979 : en: 01: 00: 07.979
    01: 06: 41.873 : en: 01: 06: 41.873
    01: 14: 41.602 : en: 01: 14: 41.602
    01: 19: 00.486 : en: 01: 19: 00.486
    01: 22: 40.998 : en: 01: 22: 40.998
    01: 29: 40.625 : en: 01: 29: 40.625
    01: 34: 10.687 : en: 01: 34: 10.687


    Скриншоты для ознакомления




    Онлайн видео Сердце дракона 4



    Сердце дракона 4/Dragonheart: Battle for the Heartfire (2017) BDRip [H.264/1080p] [EN/EN Sub]
    Рейтинг →
     (голосов: 1, оценка 3/5, голосовать можно 1 раз )

    Другие торренты по теме:

  • Сердце дракона 3: Проклятье чародея / Dragonheart 3: The Sorcerers Curse (2015) DVDRip [VO] скачать через торрент бесплатно
  • Сердце дракона 3: Проклятье чародея / Dragonheart 3: The Sorcerers Curse (2015) WEB-DL [720p] [VO] скачать через торрент бесплатно
  • Сердце дракона 3: Проклятье чародея / Dragonheart 3: The Sorcerers Curse (2015) HDRip
  • Сердце дракона 3: Проклятье чародея / Dragonheart 3: The Sorcerers Curse (2015) BDRip [1080p] [EN / EN, Fr, Sp Sub]
  • Сердце дракона 3: Проклятье чародея / Dragonheart 3: The Sorcerers Curse (2015) BDRip [720p] [EN / EN, Fr, Sp Sub]
  • Сердце дракона 3: Проклятье чародея / Dragonheart 3: The Sorcerers Curse (2015) WEB-DL [720p] ATV скачать через торрент бесплатно
  • Сердце дракона 3: Проклятье чародея / Dragonheart 3: The Sorcerers Curse (2015) WEB-DLRip [480p] скачать через торрент бесплатно
  • Сердце дракона 3: Проклятье чародея / Dragonheart 3: The Sorcerers Curse (2015) BDRemux [1080p] скачать через торрент бесплатно


    • Комментарии (0):

      Информация

      Информация

        Посетители, находящиеся в группе Гости, не могут оставлять комментарии в данной новости.

        ↓ Меню




        ↓ Опрос

        Вы добавили сайт в закладки?
        Да
        Нет


        Top 10 за месяц (Фильмы)