.
Авторизация | Регистрация
Хочешь лучшие торренты? Добавь свой email!
Добавить

Торрент скачать бесплатно

» » Хранители / Watchmen (2009) WEBRip [H.264] [Theatrical Cut] [Open Matte] торрент скачать бесплатно




    Хранители / Watchmen (2009) WEBRip [H.264] [Theatrical Cut] [Open Matte] торрент скачать бесплатно

    Опубликовал: Админ | Дата: 12-06-2017, 05:00 | Просмотров: 1

    Производство: США, Paramount
    Жанр: Фантастика, Триллер, Драма, Детектив
    Режиссер: Зак Снайдер

    Актеры
    Малин Акерман, Билли Крудап, Мэттью Гуд, Джеки Эрл Хейли, Джеффри Дин Морган, Патрик Уилсон, Карла Гуджино, Мэтт Фрюэр, Стивен МакХэтти, Лаура Меннелл, Роб ЛаБелль, Гэри Хьюстон, Джерард Батлер

    Описание

    Действие картины разворачивается в параллельной реальности, в Америке 1985 года. В этом мире супергерои стали частью повседневной жизни общества, а Часы Судного Дня, застыв в пяти минутах от полуночи, отсчитывают время до столкновения ведущих мировых держав. После убийства одного из своих прежних коллег Роршах - супергерой, никогда не снимающий маски, - полон решимости свершить суд Линча.
    Он начинает расследование заговора, призванного уничтожить или дискредитировать всех супергероев прошлого и настоящего. Он собирает своих соратников - отставной легион борцов с преступностью, но лишь один из них обладает подлинной силой. Постепенно Роршах осознает пугающий масштаб заговора, связанного с общим прошлым героев и сулящего катастрофические последствия в будущем. Они хранят наш покой, но кто охранит нас от Хранителей?

    Возраст: 16+ (зрителям, достигшим 16 лет)
    Рейтинг MPAA: R (лицам до 17 лет обязательно присутствие взрослого)
    Продолжительность: 02: 42: 06
    Качество видео: WEBRip
    Перевод: Дублированный, двухголосый закадровый
    Субтитры: Русские, русские (форсированные), английские
    Видео: AVC/H.264, 1152x648, ~2770 kbps
    Аудио 1: AC3, 6 ch, 448 kbps (дубляж)
    Аудио 2: AC3, 2 ch, 192 kbps (DVO, Кириллица)
    Аудио 3: AC3, 6 ch, 448 kbps (English)

    General
    Complete name : Watchmen.2009.TC.Open.Matte.WEBRip.AVC.mkv
    Format : Matroska
    Format version : Version 4/Version 2
    File size : 4.37 GiB
    Duration : 2 h 42 min
    Overall bit rate : 3 858 kb/s
    Movie name : Watchmen (2009) TC Open Matte
    Encoded date : UTC 2017-06-10 09: 40: 55
    Writing application : mkvmerge v9.9.0 (\'Pick Up\') 64bit
    Writing library : libebml v1.3.4 + libmatroska v1.4.5
    Video
    ID : 1
    Format : AVC
    Format/Info : Advanced Video Codec
    Format profile : High@L4.1
    Format settings, CABAC : Yes
    Format settings, ReFrames : 9 frames
    Codec ID : V_MPEG4/ISO/AVC
    Duration : 2 h 42 min
    Bit rate : 2 770 kb/s
    Width : 1 152 pixels
    Height : 648 pixels
    Display aspect ratio : 16: 9
    Frame rate mode : Constant
    Frame rate : 23.976 (24000/1001) FPS
    Color space : YUV
    Chroma subsampling : 4: 2: 0
    Bit depth : 8 bits
    Scan type : Progressive
    Bits/(Pixel*Frame) : 0.155
    Stream size : 3.13 GiB (72%)
    Writing library : x264 core 150 r2833 df79067
    Encoding settings : cabac=1/ref=9/deblock=1: -2: -2/analyse=0x3: 0x113/me=umh/subme=10/psy=1/psy_rd=1.05: 0.03/mixed_ref=1/me_range=48/chroma_me=1/trellis=2/8x8dct=1/cqm=0/deadzone=21, 11/fast_pskip=0/chroma_qp_offset=-3/threads=12/lookahead_threads=2/sliced_threads=0/nr=0/decimate=1/interlaced=0/bluray_compat=0/constrained_intra=0/bframes=8/b_pyramid=2/b_adapt=2/b_bias=0/direct=3/weightb=1/open_gop=0/weightp=2/keyint=240/keyint_min=23/scenecut=40/intra_refresh=0/rc_lookahead=64/rc=2pass/mbtree=0/bitrate=2770/ratetol=1.0/qcomp=0.60/qpmin=0/qpmax=69/qpstep=4/cplxblur=20.0/qblur=0.5/vbv_maxrate=50000/vbv_bufsize=50000/nal_hrd=none/filler=0/ip_ratio=1.40/pb_ratio=1.30/aq=1: 1.00
    Language : English
    Default : Yes
    Forced : No
    Color range : Limited
    Color primaries : BT.709
    Transfer characteristics : BT.709
    Matrix coefficients : BT.709
    Audio #1
    ID : 2
    Format : AC-3
    Format/Info : Audio Coding 3
    Mode extension : CM (complete main)
    Format settings, Endianness : Big
    Codec ID : A_AC3
    Duration : 2 h 42 min
    Bit rate mode : Constant
    Bit rate : 448 kb/s
    Channel(s) : 6 channels
    Channel positions : Front: L C R, Side: L R, LFE
    Sampling rate : 48.0 kHz
    Frame rate : 31.250 FPS (1536 spf)
    Bit depth : 16 bits
    Compression mode : Lossy
    Stream size : 519 MiB (12%)
    Title : Dub Rus
    Language : Russian
    Default : Yes
    Forced : No
    Audio #2
    ID : 3
    Format : AC-3
    Format/Info : Audio Coding 3
    Mode extension : CM (complete main)
    Format settings, Endianness : Big
    Codec ID : A_AC3
    Duration : 2 h 42 min
    Bit rate mode : Constant
    Bit rate : 192 kb/s
    Channel(s) : 2 channels
    Channel positions : Front: L R
    Sampling rate : 48.0 kHz
    Frame rate : 31.250 FPS (1536 spf)
    Bit depth : 16 bits
    Compression mode : Lossy
    Stream size : 223 MiB (5%)
    Title : DVO Rus
    Language : Russian
    Default : No
    Forced : No
    Audio #3
    ID : 4
    Format : AC-3
    Format/Info : Audio Coding 3
    Mode extension : CM (complete main)
    Format settings, Endianness : Big
    Codec ID : A_AC3
    Duration : 2 h 42 min
    Bit rate mode : Constant
    Bit rate : 448 kb/s
    Channel(s) : 6 channels
    Channel positions : Front: L C R, Side: L R, LFE
    Sampling rate : 48.0 kHz
    Frame rate : 31.250 FPS (1536 spf)
    Bit depth : 16 bits
    Compression mode : Lossy
    Stream size : 519 MiB (12%)
    Title : Original Eng
    Language : English
    Default : No
    Forced : No
    Text #1
    ID : 5
    Format : UTF-8
    Codec ID : S_TEXT/UTF8
    Codec ID/Info : UTF-8 Plain Text
    Duration : 2 h 14 min
    Bit rate : 0 b/s
    Count of elements : 19
    Stream size : 869 Bytes (0%)
    Title : Forced Rus
    Language : Russian
    Default : No
    Forced : No
    Text #2
    ID : 6
    Format : UTF-8
    Codec ID : S_TEXT/UTF8
    Codec ID/Info : UTF-8 Plain Text
    Duration : 2 h 35 min
    Bit rate : 92 b/s
    Count of elements : 1691
    Stream size : 105 KiB (0%)
    Title : Full Rus
    Language : Russian
    Default : No
    Forced : No
    Text #3
    ID : 7
    Format : UTF-8
    Codec ID : S_TEXT/UTF8
    Codec ID/Info : UTF-8 Plain Text
    Duration : 2 h 34 min
    Bit rate : 51 b/s
    Count of elements : 1655
    Stream size : 58.4 KiB (0%)
    Title : Full Eng
    Language : English
    Default : No
    Forced : No
    Menu
    00: 00: 00.000 : en: 00: 00: 00.000
    00: 05: 41.633 : en: 00: 05: 41.633
    00: 11: 16.134 : en: 00: 11: 16.134
    00: 15: 11.994 : en: 00: 15: 11.994
    00: 17: 36.013 : en: 00: 17: 36.013
    00: 21: 43.928 : en: 00: 21: 43.928
    00: 24: 33.847 : en: 00: 24: 33.847
    00: 29: 32.312 : en: 00: 29: 32.312
    00: 33: 59.204 : en: 00: 33: 59.204
    00: 38: 30.725 : en: 00: 38: 30.725
    00: 41: 58.599 : en: 00: 41: 58.599
    00: 43: 36.280 : en: 00: 43: 36.280
    00: 46: 59.358 : en: 00: 46: 59.358
    00: 51: 14.196 : en: 00: 51: 14.196
    00: 53: 22.533 : en: 00: 53: 22.533
    00: 56: 02.901 : en: 00: 56: 02.901
    00: 59: 17.220 : en: 00: 59: 17.220
    01: 04: 14.142 : en: 01: 04: 14.142
    01: 06: 04.085 : en: 01: 06: 04.085
    01: 09: 26.454 : en: 01: 09: 26.454
    01: 11: 05.052 : en: 01: 11: 05.052
    01: 13: 51.719 : en: 01: 13: 51.719
    01: 15: 31.402 : en: 01: 15: 31.402
    01: 19: 15.960 : en: 01: 19: 15.960
    01: 23: 47.856 : en: 01: 23: 47.856
    01: 27: 01.758 : en: 01: 27: 01.758
    01: 32: 05.145 : en: 01: 32: 05.145
    01: 37: 48.946 : en: 01: 37: 48.946
    01: 41: 09.814 : en: 01: 41: 09.814
    01: 46: 16.161 : en: 01: 46: 16.161
    01: 49: 19.428 : en: 01: 49: 19.428
    01: 52: 35.082 : en: 01: 52: 35.082
    01: 56: 57.761 : en: 01: 56: 57.761
    01: 57: 58.238 : en: 01: 57: 58.238
    02: 02: 40.228 : en: 02: 02: 40.228
    02: 09: 31.555 : en: 02: 09: 31.555
    02: 12: 14.260 : en: 02: 12: 14.260
    02: 16: 39.650 : en: 02: 16: 39.650
    02: 20: 02.477 : en: 02: 20: 02.477
    02: 23: 28.558 : en: 02: 23: 28.558
    02: 26: 38.873 : en: 02: 26: 38.873
    02: 30: 43.785 : en: 02: 30: 43.785
    02: 35: 22.563 : en: 02: 35: 22.563


    Онлайн видео Хранители



    Хранители/Watchmen (2009) WEBRip [H.264] [Theatrical Cut] [Open Matte]
    Рейтинг →
     (голосов: 1, оценка 5/5, голосовать можно 1 раз )

    Другие торренты по теме:

  • Хранители / Watchmen [Максимальная версия / Ultimate cut] (2009) 2*DVD5 [BD -> DVD] скачать через торрент бесплатно
  • Хранители / Watchmen (2009) BDRip [H.265 / 1080p] [Directors Cut]
  • Хранители / Watchmen (2009) BDRip [H.265 / 1080p-LQ] [Ultimate cut]
  • Хранители / Watchmen [Максимальная версия / Ultimate cut] (2009) UHD BDRemux [H.265 / 2160p] [4K, HDR, 10-bit]
  • Watchmen: The End is Nigh / Хранители (2009) [Ru / En] (1.0) Repack Seraph1 [Complete Pack]


    • Комментарии (0):

      Информация

      Информация

        Посетители, находящиеся в группе Гости, не могут оставлять комментарии в данной новости.

        ↓ Меню




        ↓ Опрос

        Вы добавили сайт в закладки?
        Да
        Нет


        Top 10 за месяц (Фильмы)