.
Авторизация | Регистрация
Хочешь лучшие торренты? Добавь свой email!
Добавить

Торрент скачать бесплатно

» » Кровавая гонка / Кровь на колесах / Blood Drive (2017) WEB-DL [H.264 / 1080p-LQ] (сезон 1, серии 1 из 13) OmskBird (обновляемая) [AD] торрент скачать бесплатно




    Кровавая гонка / Кровь на колесах / Blood Drive (2017) WEB-DL [H.264 / 1080p-LQ] (сезон 1, серии 1 из 13) OmskBird (обновляемая) [AD] торрент скачать бесплатно

    Опубликовал: Админ | Дата: 16-06-2017, 05:00 | Просмотров: 0

    Производство: США
    Жанр: Ужасы, Фантастика, Драма
    Режиссер: Дэвид Стрейтон, Мира Менон

    Актеры
    Алан Ричсон, Кристина, Марама Корлетт, Колин Каннингэм, Даррен Кент, Эндрю Моргадо, Шон Майкл, Карел Нель, Эйдан Уайток и др.

    Описание

    Сериал SyFy Кровавые Гонки выдержан в стилистике Роберта Родригеса вроде Планеты страха. События фантастического сериала происходят в постапокалиптическом будущем 1999 года в Лос-Анджелесе, а в центре событий - коп Артур Бэйли, который вынужден присоединиться к команде Кровавых гонок, подпольному шоу в котором автомобили разъезжают на человеческой крови. Его напарница - очаровательная и опасная Грейс Д\'Ардженто со своими секретами. Им вместе придется преодолеть множество препятствий, или самим стать топливом для гоночных автомобилей.

    Дата мировой премьеры: 14 июня 2017
    Релиз от: OmskBird
    Продолжительность: ~00: 45: 00 серия
    Качество видео: WEB-DL
    Перевод: Многоголосый закадровый, профессиональный - OmskBird
    Субтитры: английские
    Реклама: присутствуют аудио вставки рекламы
    Видео: AVC/H.264, 1920x1080 (16: 9), ~5200 kbpc
    Аудио #1: AC3, 6 ch, 384 kbps - русский, многоголосый закадровый
    Аудио #2: AC3, 6 ch, 384 kbps - английский

    General
    Unique ID : 219217635965666565256786356811545312735 (0xA4EBC7EBF8FAB32FA852D6B86FFDFDDF)
    Complete name : G: FilmsBlood.Drive.S01.1080p.WEB-DL.OmskBirdBlood.Drive.S01E01.1080p.WEB-DL.OmskBird.mkv
    Format : Matroska
    Format version : Version 4/Version 2
    File size : 1.86 GiB
    Duration : 44mn 33s
    Overall bit rate : 5 965 Kbps
    Encoded date : UTC 2017-06-15 10: 16: 38
    Writing application : mkvmerge v12.0.0 (\'Trust/Lust\') 64bit
    Writing library : libebml v1.3.4 + libmatroska v1.4.5
    Cover : Yes
    Attachments : small_cover.jpg/small_cover_land.jpg/cover.jpg/cover_land.jpg
    Video
    ID : 1
    Format : AVC
    Format/Info : Advanced Video Codec
    Format profile : High@L4
    Format settings, CABAC : Yes
    Format settings, ReFrames : 4 frames
    Codec ID : V_MPEG4/ISO/AVC
    Duration : 44mn 33s
    Bit rate : 5 195 Kbps
    Width : 1 920 pixels
    Height : 1 080 pixels
    Display aspect ratio : 16: 9
    Frame rate mode : Constant
    Frame rate : 23.976 (23976/1000) fps
    Color space : YUV
    Chroma subsampling : 4: 2: 0
    Bit depth : 8 bits
    Scan type : Progressive
    Bits/(Pixel*Frame) : 0.104
    Stream size : 1.62 GiB (87%)
    Language : English
    Default : Yes
    Forced : No
    Color range : Limited
    Color primaries : BT.709
    Transfer characteristics : BT.709
    Matrix coefficients : BT.709
    Audio #1
    ID : 2
    Format : AC-3
    Format/Info : Audio Coding 3
    Mode extension : CM (complete main)
    Format settings, Endianness : Big
    Codec ID : A_AC3
    Duration : 44mn 33s
    Bit rate mode : Constant
    Bit rate : 384 Kbps
    Channel(s) : 6 channels
    Channel positions : Front: L C R, Side: L R, LFE
    Sampling rate : 48.0 KHz
    Frame rate : 31.250 fps (1536 spf)
    Compression mode : Lossy
    Delay relative to video : -42ms
    Stream size : 122 MiB (6%)
    Title : OmskBird 5.1
    Language : Russian
    Default : Yes
    Forced : No
    Audio #2
    ID : 3
    Format : AC-3
    Format/Info : Audio Coding 3
    Mode extension : CM (complete main)
    Format settings, Endianness : Big
    Codec ID : A_AC3
    Duration : 44mn 33s
    Bit rate mode : Constant
    Bit rate : 384 Kbps
    Channel(s) : 6 channels
    Channel positions : Front: L C R, Side: L R, LFE
    Sampling rate : 48.0 KHz
    Frame rate : 31.250 fps (1536 spf)
    Compression mode : Lossy
    Delay relative to video : -42ms
    Stream size : 122 MiB (6%)
    Title : eng
    Language : English
    Default : No
    Forced : No
    Text
    ID : 4
    Format : UTF-8
    Codec ID : S_TEXT/UTF8
    Codec ID/Info : UTF-8 Plain Text
    Duration : 43mn 52s
    Bit rate : 54 bps
    Count of elements : 538
    Stream size : 17.4 KiB (0%)
    Title : eng
    Language : English
    Default : No
    Forced : No


    Скриншоты для ознакомления




    Онлайн видео Кровавая гонка



    Кровавая гонка/Кровь на колесах/Blood Drive (2017) WEB-DL [H.264/1080p-LQ] (сезон 1, серии 1 из 13) OmskBird (обновляемая) [AD]
    Рейтинг →
     (голосов: 1, оценка 4/5, голосовать можно 1 раз )

    Другие торренты по теме:

  • Кровавая луна / Die Sаge des Todes (1981) BDRip [H.264] [VO] скачать через торрент бесплатно
  • Кровавая леди Батори / Lady of Csejte (2014) WEBRip [720p] [Трейлер]
  • Bayonetta: Bloody Fate / Байонетта: Кровавая Судьба [2013, MV] BDRip 720p Rus
  • Кровавая работа / Blood Work (2002) HDRip [AVO]
  • Кровавая мама / Bloody Mama (1970) DVDRip [H.264]
  • Кровавая луна / Bloodmoon (1997) DVDRip [H.264] [VO]
  • Кровавая леди Батори (2015) WEB-DL [1080p] ATV скачать через торрент бесплатно
  • Кровавая леди Батори (2015) WEB-DLRip [576p] iPad скачать через торрент бесплатно


    • Комментарии (0):

      Информация

      Информация

        Посетители, находящиеся в группе Гости, не могут оставлять комментарии в данной новости.

        ↓ Меню




        ↓ Опрос

        Вы добавили сайт в закладки?
        Да
        Нет


        Top 10 за месяц (Фильмы)