.
Авторизация | Регистрация
Хочешь лучшие торренты? Добавь свой email!
Добавить

Торрент скачать бесплатно

» » Ради Эллен / For Ellen (2012) DVDRip торрент скачать бесплатно




    Ради Эллен / For Ellen (2012) DVDRip торрент скачать бесплатно

    Опубликовал: Админ | Дата: 17-06-2017, 05:00 | Просмотров: 0

    Производство: США
    Жанр: Драма
    Режиссер: Со Йонг Ким

    Актеры
    Пол Дано, Питер Робертс, Уильям Робертс, Джон Хидер, Маргарита Левиева, Джулиан Гэмбл, Дакота Джонсон

    Описание

    Честолюбивый рок-музыкант, Джоби Тейлор, ничего не хотел больше, чем достичь успеха, но слава и признание лишь мимолетно коснулись его, так никогда и не превратившись в истинный успех. Он никогда не был отцом для 6-летней Эллен. Но когда, при разводе с женой, ему предложили отказаться от этого статуса окончательно, понял, что с ребенком он теряет часть себя…

    Продолжительность: 01: 33: 42
    Качество видео: DVDRip
    Перевод: Двуголосый закадровый
    Субтитры: отсутствуют
    Видео: Xvid, 624x256, ~868 kbps
    Аудио: MP3, 2 ch, 112 kbps

    General
    Complete name : /media/win/TORRENT/UPLOAD TORRENTS/Radi.Elen.2012.DVDrip.XviD.Rus-Eng_25KADR.avi
    Format : AVI
    Format/Info : Audio Video Interleave
    File size : 742 MiB
    Duration : 1 h 33 min
    Overall bit rate : 1 107 kb/s
    Movie name : Radi.Elen.2012
    Original source form/Distributed by : For.Ellen.2012.DVDRip.XviD-WiDE.avi
    Genre : Drama
    Copyright : 25KADR
    Comment : DVO (Tomitoot studio)
    Video
    ID : 0
    Format : MPEG-4 Visual
    Format profile : Advanced Simple@L5
    Format settings, BVOP : No
    Format settings, QPel : No
    Format settings, GMC : No warppoints
    Format settings, Matrix : Default (MPEG)
    Codec ID : XVID
    Codec ID/Hint : XviD
    Duration : 1 h 33 min
    Bit rate : 869 kb/s
    Width : 624 pixels
    Height : 256 pixels
    Display aspect ratio : 2.40: 1
    Frame rate : 23.976 (24000/1001) FPS
    Color space : YUV
    Chroma subsampling : 4: 2: 0
    Bit depth : 8 bits
    Scan type : Progressive
    Compression mode : Lossy
    Bits/(Pixel*Frame) : 0.227
    Stream size : 582 MiB (79%)
    Writing library : XviD 1.2.1 (UTC 2008-12-04)
    Audio #1
    ID : 1
    Format : MPEG Audio
    Format version : Version 1
    Format profile : Layer 3
    Mode : Joint stereo
    Mode extension : MS Stereo
    Codec ID : 55
    Codec ID/Hint : MP3
    Duration : 1 h 33 min
    Bit rate mode : Constant
    Bit rate : 112 kb/s
    Channel(s) : 2 channels
    Sampling rate : 48.0 kHz
    Compression mode : Lossy
    Stream size : 75.1 MiB (10%)
    Alignment : Aligned on interleaves
    Interleave, duration : 42 ms (1.00 video frame)
    Interleave, preload duration : 504 ms
    Language : Russian (ENG)
    Audio #2
    ID : 2
    Format : MPEG Audio
    Format version : Version 1
    Format profile : Layer 3
    Codec ID : 55
    Codec ID/Hint : MP3
    Duration : 1 h 33 min
    Bit rate mode : Constant
    Bit rate : 112 kb/s
    Channel(s) : 2 channels
    Sampling rate : 48.0 kHz
    Compression mode : Lossy
    Stream size : 75.1 MiB (10%)
    Alignment : Aligned on interleaves
    Interleave, duration : 42 ms (1.00 video frame)
    Interleave, preload duration : 504 ms
    Writing library : LAME3.98.4


    Скриншоты для ознакомления




    Онлайн видео Ради Эллен



    Ради Эллен/For Ellen (2012) DVDRip
    Рейтинг →
     (голосов: 1, оценка 3/5, голосовать можно 1 раз )

    Другие торренты по теме:

  • Город грехов 2: Женщина, ради которой стоит убивать / Sin City: A Dame to Kill For (2014) HDRip
  • Город грехов 2: Женщина, ради которой стоит убивать / Sin City: A Dame to Kill For (2014) BDRip [H264]
  • Город грехов 2: Женщина, ради которой стоит убивать / Sin City: A Dame to Kill For (2014) HDRip
  • Город грехов 2: Женщина, ради которой стоит убивать / Sin City: A Dame to Kill For (2014) BDRip [720p]
  • Город грехов 2: Женщина, ради которой стоит убивать / Sin City: A Dame to Kill For (2014) Blu-ray [1080p]
  • Город грехов 2: Женщина, ради которой стоит убивать / Sin City: A Dame to Kill For (2014) BDRemux [1080p]
  • Город грехов 2: Женщина, ради которой стоит убивать / Sin City: A Dame to Kill For (2014) BDRip [720p] ATV
  • Город грехов 2: Женщина, ради которой стоит убивать / Sin City: A Dame to Kill For (2014) BDRip [576p] iPad


    • Комментарии (0):

      Информация

      Информация

        Посетители, находящиеся в группе Гости, не могут оставлять комментарии в данной новости.

        ↓ Меню




        ↓ Опрос

        Вы добавили сайт в закладки?
        Да
        Нет


        Top 10 за месяц (Фильмы)