.
Авторизация | Регистрация
Хочешь лучшие торренты? Добавь свой email!
Добавить

Торрент скачать бесплатно

» » Я или не я (2015) WEB-DL [H.264 / 1080p-LQ] (серии 1 из 2) (обновляемая) торрент скачать бесплатно




    Я или не я (2015) WEB-DL [H.264 / 1080p-LQ] (серии 1 из 2) (обновляемая) торрент скачать бесплатно

    Опубликовал: Админ | Дата: 18-06-2017, 05:00 | Просмотров: 0

    Производство: Россия/ООО Рекун-Синема
    Жанр: комедия, мелодрама
    Режиссер: Максим Дашкин

    Актеры
    Андрей Носков, Татьяна Федоровская, Владимир Демидов, Светлана Тян, Андрей Межулис, Вадим Проданов, Юлия Сулес, Анна Теплицина, Дмитрий Филиппов, Олег Билик и др.

    Описание

    Строительный магнат Мухин кидает своих клиентов и со всеми деньгами сбегает из страны, оставив жену отвечать за свои махинации. Молодая женщина в отчаянии, но тут в происходящее вмешивается случай: она встречает безработного артиста, похожего на Мухина, как две капли воды, и нанимает его на работу. Теперь Олегу предстоит занять место сбежавшего жулика и помочь обманутой женщине выстоять в непростой ситуации.

    Возраст: 12+ (зрителям, достигшим 12 лет)
    Релиз от: Алехаndr
    Продолжительность: ~01: 27: 00 серия
    Качество видео: WEB-DL
    Видео: AVC/H.264, 1920x1080 (16: 9), ~2745 Kbps
    Аудио: AC3, 2 ch, 192 Kbps

    Общее
    Уникальный идентификатор : 302101665508355321377340646355146171032 (0xE346AA1525AB3A3D854B6770AC68E298)
    Полное имя : F: Я или не я (2015).by.АлехаndrСерия 1.by.Алехаndr.mkv
    Формат : Matroska
    Версия формата : Version 4/Version 2
    Размер файла : 1, 83 Гбайт
    Продолжительность : 1 ч. 27 м.
    Общий поток : 2997 Кбит/сек
    Программа кодирования : Lavf57.25.100
    Библиотека кодирования : Lavf57.25.100
    Видео
    Идентификатор : 1
    Формат : AVC
    Формат/Информация : Advanced Video Codec
    Профиль формата : High@L4
    Параметр CABAC формата : Да
    Параметр ReFrames формата : 2 кадра
    Идентификатор кодека : V_MPEG4/ISO/AVC
    Продолжительность : 1 ч. 27 м.
    Битрейт : 2745 Кбит/сек
    Ширина : 1920 пикселей
    Высота : 1080 пикселей
    Соотношение сторон : 16: 9
    Режим частоты кадров : Постоянный
    Частота кадров : 25, 000 кадров/сек
    Цветовое пространство : YUV
    Субдискретизация насыщенности : 4: 2: 0
    Битовая глубина : 8 бит
    Тип развёртки : Прогрессивная
    Бит/(Пиксели*Кадры) : 0.053
    Размер потока : 1, 68 Гбайт (92%)
    Default : Да
    Forced : Нет
    Цветовой диапазон : Limited
    Основные цвета : BT.709
    Характеристики трансфера : BT.709
    Коэффициенты матрицы : BT.709
    DURATION : 01: 27: 24.560000000
    Аудио
    Идентификатор : 2
    Формат : AC-3
    Формат/Информация : Audio Coding 3
    Параметр Endianness формата : Big
    Идентификатор кодека : A_AC3
    Продолжительность : 1 ч. Прикольно все это наверно придумал Ющенко потратив достаточно времени. 27 м.
    Вид битрейта : Постоянный
    Битрейт : 192 Кбит/сек
    Каналы : 2 канала
    Расположение каналов : Front: L R
    Частота : 44, 1 КГц
    Частота кадров : 28, 711 кадров/сек (1536 spf)
    Битовая глубина : 16 бит
    Метод сжатия : С потерями
    Задержка видео : -40 мс.
    Размер потока : 120 Мбайт (6%)
    Язык : unknown
    ServiceKind/String : Complete Main
    Default : Да
    Forced : Нет
    DURATION : 01: 27: 24.551000000


    Скриншоты для ознакомления




    Онлайн видео Я или не я (2015) WEB-DL [H.264



    Я или не я (2015) WEB-DL [H.264/1080p-LQ] (серии 1 из 2) (обновляемая)
    Рейтинг →
     (голосов: 1, оценка 3/5, голосовать можно 1 раз )

    Другие торренты по теме:

  • Мистериум. Тьма в бутылке / Flaskepost fra P (2016) WEB-DL [H.264 / 1080p-LQ]
  • Мистериум. Тьма в бутылке / Flaskepost fra P (2016) WEB-DL [H.264 / 1080p-LQ]
  • Голубь сидел на ветке, размышляя о бытии / En duva satt på en gren och funderade på tillvaron (2014) WEB-DL [H.264 / 1080p-LQ] [SW / RU Sub] скачать через торрент бесплатно
  • В розыске / Сигнал всем постам / A.P.B. (2016) WEB-DL [H.264 / 720p-LQ] (сезон 1, серия 1 из 12) BaibaKo (обновляемая)
  • В розыске / Сигнал всем постам / A.P.B. (2016) WEB-DL [H.264 / 1080p-LQ] (сезон 1, серия 1 из 12) BaibaKo (обновляемая)
  • В розыске / Сигнал всем постам / A.P.B. (2016) WEB-DL [H.264 / 1080p-LQ] (сезон 1, серии 1 из 12) OmskBird (обновляемая)


    • Комментарии (0):

      Информация

      Информация

        Посетители, находящиеся в группе Гости, не могут оставлять комментарии в данной новости.

        ↓ Меню




        ↓ Опрос

        Вы добавили сайт в закладки?
        Да
        Нет


        Top 10 за месяц (Фильмы)