.
Авторизация | Регистрация
Хочешь лучшие торренты? Добавь свой email!
Добавить

Торрент скачать бесплатно

» » Безработный с дипломом 2. Вызов / Velaiilla Pattadhari 2 (2017) WEBRip [TAM / RU sub] торрент скачать бесплатно




    Безработный с дипломом 2. Вызов / Velaiilla Pattadhari 2 (2017) WEBRip [TAM / RU sub] торрент скачать бесплатно

    Опубликовал: Админ | Дата: 26-09-2017, 05:00 | Просмотров: 6

    Производство: Индия
    Жанр: Комедия, Драма
    Режиссер: Soundarya Rajnikanth

    Актеры
    Dhanush, Monal Gajjar, Hrishikesh

    Описание

    В основе фильма лежит столкновение простодушного Рагхуварана с эгоистичной и властной Васундарой. Что победит? Власть и деньги или честность и доброе сердце?

    Продолжительность: 01: 55: 31
    Качество видео: WEBRip
    Перевод: Отсутствует
    Язык озвучки: Тамили
    Субтитры: Русские неотключаемые
    Видео: Xvid, 720х420@995x448, ~1396 Kbps
    Аудио: AC3, 2 ch, 224 Kbps

    Общее
    Полное имя : J: Velaiilla.Pattadhari.2.2017.WeBrip.avi
    Формат : AVI
    Формат/Информация : Audio Video Interleave
    Профиль формата : OpenDML
    Размер файла : 1, 32 Гбайт
    Продолжительность : 1 ч. 55 м.
    Общий поток : 1632 Кбит/сек
    Программа кодирования : Lavf57.71.100
    Видео
    Идентификатор : 0
    Формат : MPEG-4 Visual
    Профиль формата : Advanced Simple@L5
    Параметр BVOP формата : 1
    Параметр QPel формата : Нет
    Параметр GMC формата : Без точки перехода
    Параметр матрицы формата : Default (H.263)
    Идентификатор кодека : XVID
    Идентификатор кодека/Подсказка : XviD
    Продолжительность : 1 ч. 55 м.
    Битрейт : 1396 Кбит/сек
    Ширина : 720 пикселей
    Высота : 420 пикселей
    Соотношение сторон : 2, 40: 1
    Частота кадров : 25, 000 кадров/сек
    Цветовое пространство : YUV
    Субдискретизация насыщенности : 4: 2: 0
    Битовая глубина : 8 бит
    Тип развёртки : Прогрессивная
    Метод сжатия : С потерями
    Бит/(Пиксели*Кадры) : 0.185
    Размер потока : 1, 13 Гбайт (86%)
    Библиотека кодирования : XviD 67
    Аудио
    Идентификатор : 1
    Формат : AC-3
    Формат/Информация : Audio Coding 3
    Расширение режима : CM (complete main)
    Параметр Endianness формата : Big
    Идентификатор кодека : 2000
    Продолжительность : 1 ч. 55 м.
    Вид битрейта : Постоянный
    Битрейт : 224 Кбит/сек
    Каналы : 2 канала
    Расположение каналов : Front: L R
    Частота : 44, 1 КГц
    Частота кадров : 28, 711 кадров/сек (1536 spf)
    Битовая глубина : 16 бит
    Метод сжатия : С потерями
    Размер потока : 185 Мбайт (14%)
    Выравнивание : Соединение по промежуткам
    Продолжительность промежутка : 35 мс. (0, 87 видеокадр)

    Скриншоты для ознакомления



    Все одноименные релизы в Клубе
    Время раздачи: Пн-Пт с 18: 00 до 22: 00, Сб-Вс с 09: 00 до 22: 00 (до появления первых 3-5 скачавших)

    Онлайн видео Безработный с дипломом 2. Вызов



    Безработный с дипломом 2. Вызов/Velaiilla Pattadhari 2 (2017) WEBRip [TAM/RU sub]
    Рейтинг →
     (голосов: 1, оценка 5/5, голосовать можно 1 раз )

    Другие торренты по теме:



      Комментарии (0):

      Информация

      Информация

        Посетители, находящиеся в группе Гости, не могут оставлять комментарии в данной новости.

        ↓ Меню




        ↓ Опрос

        Вы добавили сайт в закладки?
        Да
        Нет


        Top 10 за месяц (Фильмы)