.
Авторизация | Регистрация
Хочешь лучшие торренты? Добавь свой email!
Добавить

Торрент скачать бесплатно

» » Дамы и господа, спокойной ночи! / Signore e signori, buonanotte (1976) DVDRip [H.264] торрент скачать бесплатно




    Дамы и господа, спокойной ночи! / Signore e signori, buonanotte (1976) DVDRip [H.264] торрент скачать бесплатно

    Опубликовал: Админ | Дата: 5-10-2017, 05:00 | Просмотров: 5

    Производство: Франция, Италия/Maggio Cooperativa, Titanus
    Жанр: Комедия
    Режиссер: Леонардо Бенвенути, Луиджи Коменчини, Луиджи Маньи, Нанни Лой, Марио Моничелли, Этторе Скола
    Продюсер: Франко Коммиттери

    Актеры
    Марчелло Мастроянни, Моника Джерриторе, Уго Тоньяцци, Паоло Вилладжо, Витторио Гассман, Нино Манфреди, Феличе Андреази, Карло Баньо, Джанфранко Барра, Зента Бергер, Адольфо Чели, Карло Кроччоло, Франко Диоджене

    Описание

    Нам предлагают насладиться прямым эфиром идиотского канала 3TG в компании неотразимого ведущего. Сегодня в программе: выпуск новостей с сосредоточенным ковырянием в носу; урок английского языка со стриптизом и смертоубийством; телефильм Бомба о комиссариате городка Монтенеро, где раздается зловещие тиканье; познавательное интервью с профессором Шмидтом, предлагающим здоровый каннибализм в качестве средства от перенаселения; драматическая история генерала, пропустившего военный парад из-за аварии в санузле, а также увлекательное игровое шоу Злой Рок-ометр, победителя которого ждет смерть от электрошока!

    Возраст: 16+ (зрителям, достигшим 16 лет)
    Релиз от: Охрана (NNMCLUB)
    Продолжительность: 01: 52: 33
    Качество видео: DVDRip
    Перевод: Двуголосый закадровый (Cinema Prestige)
    Субтитры: Русские
    Видео: AVC/H.264, 720x384, ~1975 Kbps
    Аудио 1: Русский, AC3, 2 ch, 192 Kbps, 48.0 kHz
    Аудио 2: Итальянский, AC3, 2 ch, 192 Kbps, 48.0 kHz

    General
    Unique ID : 197381088335262105394333885736629290091 (0x947E370048595FB5B0D8E29544E3C46B)
    Complete name : F: DownloadsДамы и господа, спокойной ночи. 1976. NNMCLUB.mkv
    Format : Matroska
    Format version : Version 4/Version 2
    File size : 1.86 GiB
    Duration : 1h 52mn
    Overall bit rate : 2 361 Kbps
    Encoded date : UTC 2017-10-03 13: 27: 02
    Writing application : mkvmerge v7.0.0 (\'Where We Going\') 32bit built on Jun 9 2014 15: 08: 34
    Writing library : libebml v1.3.0 + libmatroska v1.4.1
    DURATION : 01: 52: 08.112000000
    NUMBER_OF_FRAMES : 1616
    NUMBER_OF_BYTES : 92739
    _STATISTICS_WRITING_APP : mkvmerge v7.0.0 (\'Where We Going\') 32bit built on Jun 9 2014 15: 08: 34
    _STATISTICS_WRITING_DATE_UTC : 2017-10-03 13: 27: 02
    _STATISTICS_TAGS : BPS DURATION NUMBER_OF_FRAMES NUMBER_OF_BYTES
    Video
    ID : 1
    Format : AVC
    Format/Info : Advanced Video Codec
    Format profile : High@L4.1
    Format settings, CABAC : Yes
    Format settings, ReFrames : 12 frames
    Codec ID : V_MPEG4/ISO/AVC
    Duration : 1h 52mn
    Bit rate : 1 975 Kbps
    Width : 720 pixels
    Height : 384 pixels
    Display aspect ratio : 1.85: 1
    Frame rate mode : Constant
    Frame rate : 25.000 fps
    Color space : YUV
    Chroma subsampling : 4: 2: 0
    Bit depth : 8 bits
    Scan type : Progressive
    Bits/(Pixel*Frame) : 0.286
    Stream size : 1.52 GiB (82%)
    Title : Signore e signori, buonanotte
    Writing library : x264 core 125 r2208 d9d2288
    Encoding settings : cabac=1/ref=12/deblock=1: -1: -1/analyse=0x3: 0x133/me=umh/subme=10/psy=1/psy_rd=1.00: 0.10/mixed_ref=1/me_range=32/chroma_me=1/trellis=2/8x8dct=1/cqm=0/deadzone=21, 11/fast_pskip=0/chroma_qp_offset=-3/threads=6/lookahead_threads=1/sliced_threads=0/nr=0/decimate=0/interlaced=0/bluray_compat=0/constrained_intra=0/bframes=7/b_pyramid=2/b_adapt=2/b_bias=0/direct=3/weightb=1/open_gop=0/weightp=2/keyint=250/keyint_min=25/scenecut=40/intra_refresh=0/rc_lookahead=60/rc=2pass/mbtree=1/bitrate=1975/ratetol=1.0/qcomp=0.60/qpmin=0/qpmax=69/qpstep=4/cplxblur=20.0/qblur=0.5/ip_ratio=1.40/aq=1: 1.00
    Language : Italian
    Default : Yes
    Forced : No
    Audio #1
    ID : 2
    Format : AC-3
    Format/Info : Audio Coding 3
    Mode extension : CM (complete main)
    Format settings, Endianness : Big
    Codec ID : A_AC3
    Duration : 1h 52mn
    Bit rate mode : Constant
    Bit rate : 192 Kbps
    Channel(s) : 2 channels
    Channel positions : Front: L R
    Sampling rate : 48.0 KHz
    Bit depth : 16 bits
    Compression mode : Lossy
    Stream size : 155 MiB (8%)
    Title : Двуголосый закадровый
    Language : Russian
    Default : Yes
    Forced : No
    Audio #2
    ID : 3
    Format : AC-3
    Format/Info : Audio Coding 3
    Mode extension : CM (complete main)
    Format settings, Endianness : Big
    Codec ID : A_AC3
    Duration : 1h 52mn
    Bit rate mode : Constant
    Bit rate : 192 Kbps
    Channel(s) : 2 channels
    Channel positions : Front: L R
    Sampling rate : 48.0 KHz
    Bit depth : 16 bits
    Compression mode : Lossy
    Stream size : 155 MiB (8%)
    Title : Оригинал
    Language : Italian
    Default : No
    Forced : No
    Text
    ID : 4
    Format : UTF-8
    Codec ID : S_TEXT/UTF8
    Codec ID/Info : UTF-8 Plain Text
    Title : SRT
    Language : Russian
    Default : No
    Forced : No

    Скриншоты для ознакомления




    Все одноименные релизы в Клубе
    Время раздачи: с 13: 00 до 01: 00 МСК, выходные круглосуточно (до появления первых 3-5 скачавших)

    Онлайн видео Дамы и господа, спокойной ночи!



    Дамы и господа, спокойной ночи!/Signore e signori, buonanotte (1976) DVDRip [H.264]
    Рейтинг →
     (голосов: 1, оценка 5/5, голосовать можно 1 раз )

    Другие торренты по теме:

  • Подшивка журналов | Дамы эпохи. Моя коллекция кукол (25 выпусков) [Обновляемая] (2011-2013) [PDF] скачать через торрент бесплатно
  • Татьяна Форш | Тайна пиковой дамы (2015) [FB2] скачать через торрент бесплатно
  • Дамы приглашают кавалеров (1980) DVDRip [H.264] [Реставрация КП] скачать через торрент бесплатно
  • Марина Крамер | Судьбу не изменить, или Дамы выбирают кавалеров (2016) [FB2]
  • Галантные дамы / Dames galantes (1990) DVDRip [H.264]
  • Визит дамы (1989) HDTV [H.264 / 1080i]
  • Грязные фото для дамы вне всяких подозрений / Le foto proibite di una signora per bene (1970) DVDRip [H.264] [АVO]
  • Дамы приглашают кавалеров (1980) HDRip [H.264]


    • Комментарии (0):

      Информация

      Информация

        Посетители, находящиеся в группе Гости, не могут оставлять комментарии в данной новости.

        ↓ Меню




        ↓ Опрос

        Вы добавили сайт в закладки?
        Да
        Нет


        Top 10 за месяц (Фильмы)