.
Авторизация | Регистрация
Хочешь лучшие торренты? Добавь свой email!
Добавить

Торрент скачать бесплатно

» » Последний богатырь (2017) TS [H.264 / 720p-LQ] [AD] торрент скачать бесплатно




    Последний богатырь (2017) TS [H.264 / 720p-LQ] [AD] торрент скачать бесплатно

    Опубликовал: Админ | Дата: 29-10-2017, 05:00 | Просмотров: 15

    Производство: Россия, Кинослово, Walt Disney Pictures, Yellow, Black White
    Жанр: Комедия, Семейный
    Режиссер: Дмитрий Дьяченко
    Продюсер: Марина Жигалова-Озкан, Эдуард Илоян

    Актеры
    Виктор Хориняк, Мила Сивацкая, Екатерина Вилкова, Елена Яковлева, Константин Лавроненко, Евгений Дятлов, Александр Семчев, Сергей Бурунов, Александр Кухаренко, Марина Калецкая

    Описание

    Иван, обычный парень, по воле случая переносится из современной Москвы в фантастическую страну Белогорье. В этом параллельном мире живут герои русских сказок, волшебство — неотъемлемая часть быта, а спорные вопросы решаются битвой на богатырских мечах. Неожиданно Иван оказывается в самом центре борьбы светлых и темных сил, вот только непонятно, почему главная роль в происходящих событиях, по всеобщему мнению, уготована именно ему.

    Возраст: 12+ (зрителям, достигшим 12 лет)
    Рейтинг MPAA: этот продукт не был классифицирован
    Дата мировой премьеры: 19 ноября 2017
    Дата российской премьеры: 26 октября 2017, WDSSPR
    Продолжительность: 01: 48: 20
    Качество видео: TS 720p
    Перевод: Не требуется (Русский)
    Субтитры: Отсутствуют
    Реклама: присутствует голосовая, текстовая и видео реклама
    Видео: AVC/H.264, 1280x558 (2, 25: 1), ~3779 Kbps, 23, 976 fps
    Аудио: AC-3, 2.0, 48 kHz, 192 kbps

    Общее
    Уникальный идентификатор : 182326950666113391411524126810992175198 (0x892AE4B594195515B4B1C8F0A75E685E)
    Полное имя : D: ФильмыPosledniy.bogatyr\'.2017.TS.720p.mkv
    Формат : Matroska
    Версия формата : Version 2
    Размер файла : 3, 01 Гбайт
    Продолжительность : 1 ч. 48 м.
    Режим общего битрейта : Переменный
    Общий поток : 3973 Кбит/сек
    Дата кодирования : UTC 2017-10-28 08: 59: 38
    Программа кодирования : mkvmerge v8.3.0 (\'Over the Horizon\') 64bit
    Библиотека кодирования : libebml v1.3.1 + libmatroska v1.4.2
    Видео
    Идентификатор : 1
    Формат : AVC
    Формат/Информация : Advanced Video Codec
    Профиль формата : High@L4.1
    Настройки формата : CABAC/11 Ref Frames
    Параметр CABAC формата : Да
    Параметр RefFrames формата : 11 кадров
    Идентификатор кодека : V_MPEG4/ISO/AVC
    Продолжительность : 1 ч. 48 м.
    Вид битрейта : Переменный
    Битрейт : 3779 Кбит/сек
    Максимальный битрейт : 4000 Кбит/сек
    Ширина : 1280 пикселей
    Высота : 558 пикселей
    Соотношение сторон : 2, 25: 1
    Режим частоты кадров : Постоянный
    Частота кадров : 23, 976 (24000/1001) кадра/сек
    Стандарт вещания : Component
    Цветовое пространство : YUV
    Субдискретизация насыщенности : 4: 2: 0
    Битовая глубина : 8 бит
    Тип развёртки : Прогрессивная
    Бит/(Пиксели*Кадры) : 0.221
    Размер потока : 2, 86 Гбайт (95%)
    Default : Да
    Forced : Нет
    Цветовой диапазон : Limited
    Основные цвета : BT.709
    Характеристики трансфера : BT.709
    Коэффициенты матрицы : BT.709
    Аудио
    Идентификатор : 2
    Формат : AC-3
    Формат/Информация : Audio Coding 3
    Параметр Endianness формата : Big
    Идентификатор кодека : A_AC3
    Продолжительность : 1 ч. 48 м.
    Вид битрейта : Постоянный
    Битрейт : 192 Кбит/сек
    Каналы : 2 канала
    Расположение каналов : Front: L R
    Частота : 48, 0 КГц
    Частота кадров : 31, 250 кадров/сек (1536 SPF)
    Битовая глубина : 16 бит
    Метод сжатия : С потерями
    Размер потока : 149 Мбайт (5%)
    ServiceKind/String : Complete Main
    Default : Да
    Forced : Нет

    Скриншоты для ознакомления


    Все одноименные релизы в Клубе
    Время раздачи: 24/7 (до появления первых 3-5 скачавших)


    Онлайн видео Последний богатырь (2017) TS [H.264



    Последний богатырь (2017) TS [H.264/720p-LQ] [AD]
    Рейтинг →
     (голосов: 1, оценка 3/5, голосовать можно 1 раз )

    Другие торренты по теме:

  • Последний богатырь (2017) TS [AD]
  • Последний богатырь (2017) WEB-DL [H.264 / 1080p-LQ]
  • Последний богатырь (2017) WEB-DLRip
  • Последний богатырь (2017) WEB-DL [H.264 / 720p-LQ]
  • Последний богатырь (2017) WEB-DLRip [H.264]
  • Последний богатырь (2017) WEB-DL [720p] ATV
  • Последний богатырь (2017) WEB-DL [1080p] ATV
  • Последний богатырь (2017) WEB-DLRip [480p] iPod


    • Комментарии (0):

      Информация

      Информация

        Посетители, находящиеся в группе Гости, не могут оставлять комментарии в данной новости.

        ↓ Меню




        ↓ Опрос

        Вы добавили сайт в закладки?
        Да
        Нет


        Top 10 за месяц (Фильмы)