.
Авторизация | Регистрация
Хочешь лучшие торренты? Добавь свой email!
Добавить

Торрент скачать бесплатно

» » Психологини (2017) WEB-DLRip [H.264] (сезон 1, серии 1-9 из 20) (обновляемая) торрент скачать бесплатно




    Психологини (2017) WEB-DLRip [H.264] (сезон 1, серии 1-9 из 20) (обновляемая) торрент скачать бесплатно

    Опубликовал: Админ | Дата: 24-11-2017, 05:00 | Просмотров: 10

    Производство: Россия, Art Pictures Vision, Black Box Production
    Жанр: Комедия, драма
    Режиссер: Роман Фокин

    Актеры
    Анна Старшенбаум, Анастасия Панина, София Каштанова, Егор Корешков, Роман Маякин, Дмитрий Ендальцев, Марта Тимофеева, Александр Гох, Виталия Корниенко

    Описание

    Что такое когнитивная беспомощность, синдром самозванца и демон ревности выпускницы психфака Вика, Таня и Алина знают не понаслышке. Правда, встретившись спустя десять лет, девушки понимают, что Фрейд и другие корифеи психологии не спасают личную жизнь. Алина заводит мимолетные романы, Вика стала тираном в собственной семье, а Таня обзавелась багажом комплексов. Подруги сблизились снова, чтобы помогать друг другу профессиональным советом, когда диагноз нужно поставить не пациенту, а самой себе.

    Возраст: 16+ (зрителям, достигшим 16 лет)
    Дата российской премьеры: 20.11.2017
    Продолжительность: ~ 00: 25: 00 серия
    Качество видео: WEB-DLRip
    Видео: AVC/H.264, 1024x576, ~ 1600 Kbps
    Аудио: AC3, 2 ch, 192 Kbps

    General
    Unique ID : 218504034589378967940845129761479321020 (0xA46258A85476710CB652AE8EE9A5E5BC)
    Complete name : D: СЕРИАЛЫПСИХОЛОГИНИPsihologini.S01.2017.WEB-DLRip.(AVC).Files-xPsixologiny.01.2017.WEB-DLRip.(AVC).by.Серый1779.Files-x.mkv
    Format : Matroska
    Format version : Version 2
    File size : 315 MiB
    Duration : 24 min 44 s
    Overall bit rate : 1 779 kb/s
    Encoded date : UTC 2017-11-13 23: 15: 20
    Writing application : mkvmerge v7.8.0 (\'River Man\') 32bit built on Apr 3 2015 12: 11: 22
    Writing library : libebml v1.3.1 + libmatroska v1.4.2
    Video
    ID : 1
    Format : AVC
    Format/Info : Advanced Video Codec
    Format profile : High@L4.1
    Format settings, CABAC : Yes
    Format settings, RefFrames : 9 frames
    Codec ID : V_MPEG4/ISO/AVC
    Duration : 24 min 44 s
    Bit rate : 1 600 kb/s
    Width : 1 024 pixels
    Height : 576 pixels
    Display aspect ratio : 16: 9
    Frame rate mode : Constant
    Frame rate : 25.000 FPS
    Color space : YUV
    Chroma subsampling : 4: 2: 0
    Bit depth : 8 bits
    Scan type : Progressive
    Bits/(Pixel*Frame) : 0.109
    Stream size : 275 MiB (87%)
    Writing library : x264 core 146 r2538 121396c
    Encoding settings : cabac=1/ref=9/deblock=1: -2: -1/analyse=0x3: 0x133/me=umh/subme=9/psy=1/psy_rd=1.00: 0.15/mixed_ref=1/me_range=32/chroma_me=1/trellis=2/8x8dct=1/cqm=0/deadzone=21, 11/fast_pskip=0/chroma_qp_offset=-3/threads=18/lookahead_threads=3/sliced_threads=0/nr=0/decimate=1/interlaced=0/bluray_compat=0/constrained_intra=0/bframes=9/b_pyramid=2/b_adapt=2/b_bias=0/direct=1/weightb=1/open_gop=0/weightp=2/keyint=250/keyint_min=25/scenecut=40/intra_refresh=0/rc=2pass/mbtree=0/bitrate=1600/ratetol=1.0/qcomp=0.60/qpmin=0/qpmax=69/qpstep=4/cplxblur=20.0/qblur=0.5/ip_ratio=1.40/pb_ratio=1.30/aq=2: 1.00
    Default : Yes
    Forced : No
    Color range : Limited
    Color primaries : BT.709
    Transfer characteristics : BT.709
    Matrix coefficients : BT.709
    Audio
    ID : 2
    Format : AC-3
    Format/Info : Audio Coding 3
    Format settings, Endianness : Big
    Codec ID : A_AC3
    Duration : 24 min 44 s
    Bit rate mode : Constant
    Bit rate : 192 kb/s
    Channel(s) : 2 channels
    Channel positions : Front: L R
    Sampling rate : 44.1 kHz
    Frame rate : 28.711 FPS (1536 SPF)
    Bit depth : 16 bits
    Compression mode : Lossy
    Stream size : 34.0 MiB (11%)
    Service kind : Complete Main
    Default : Yes
    Forced : No


    Онлайн видео Психологини (2017) WEB



    Психологини (2017) WEB-DLRip [H.264] (сезон 1, серии 1-9 из 20) (обновляемая)
    Рейтинг →
     (голосов: 1, оценка 5/5, голосовать можно 1 раз )

    Другие торренты по теме:

  • Психологини (2017) WEB-DLRip (сезон 1, серии 1-5 из 20) (обновляемая)


    • Комментарии (0):

      Информация

      Информация

        Посетители, находящиеся в группе Гости, не могут оставлять комментарии в данной новости.

        ↓ Меню




        ↓ Опрос

        Вы добавили сайт в закладки?
        Да
        Нет


        Top 10 за месяц (Фильмы)