.
Авторизация | Регистрация
Хочешь лучшие торренты? Добавь свой email!
Добавить

Торрент скачать бесплатно

» » Kingsman: Золотое кольцо / Kingsman: The Golden Circle (2017) WEB-DLRip [H.264 / 1080p-LQ] [Звук с TS] [AD] торрент скачать бесплатно




    Kingsman: Золотое кольцо / Kingsman: The Golden Circle (2017) WEB-DLRip [H.264 / 1080p-LQ] [Звук с TS] [AD] торрент скачать бесплатно

    Опубликовал: Админ | Дата: 27-11-2017, 05:00 | Просмотров: 0

    Производство: Великобритания, США, 20th Century Fox Film Corporation, Marv Films, Shangri-La Entertainment, TSG Entertainment
    Жанр: Боевик, Комедия, Приключения
    Режиссер: Мэттью Вон
    Продюсер: Адам Болинг, Дэвид Рейд, Мэттью Вон

    Актеры
    Тэрон Эджертон, Колин Фёрт, Марк Стронг, Джулианна Мур, Холли Берри, Педро Паскаль, Ченнинг Татум, Джефф Бриджес, Эдвард Холкрофт, Ханна Альстрём

    Описание

    Когда штаб-квартиры секретной службы Kingsman уничтожены, и весь мир оказался в заложниках у неизвестных, британские суперагенты обнаруживают, что в один день вместе с их организацией была еще создана американская разведка — Statesman. Теперь эти две элитные спецслужбы должны объединиться и бросить вызов общему безжалостному врагу, чтобы спасти мир, то есть заняться тем, что для Эггси становится обычным делом

    Возраст: 18+ (зрителям, достигшим 18 лет. запрещено для детей)
    Рейтинг MPAA: R (лицам до 17 лет обязательно присутствие взрослого)
    Дата мировой премьеры: 20 сентября 2017
    Дата российской премьеры: 21 сентября 2017, Двадцатый Век Фокс СНГ
    Релиз от: KOSHARA
    Продолжительность: 02: 22: 06
    Качество видео: WEB-DLRip 1080p
    Перевод: Дублированный (Звук с TS)
    Субтитры: Отсутствуют
    Реклама: Присутствуют видео, аудио и текстовые вставки рекламы
    Видео: AVC/H.264, 1920x802 (2.40: 1), 5202 kbps, 23.976 fps
    Аудио: AC-3, 2.0, 48 kHz, ~384 kbps

    Общее
    Уникальный идентификатор : 253699964737259833514633042135156498896 (0xBEDCD5FD65101C229EB07B001243A1D0)
    Полное имя : D: ФильмыKingsman.Zolotoe.kol\'co.2017.Dt.WEB-DL.1080p.mkv
    Формат : Matroska
    Версия формата : Version 2
    Размер файла : 5, 55 Гбайт
    Продолжительность : 2 ч. 22 м.
    Режим общего битрейта : Переменный
    Общий поток : 5588 Кбит/сек
    Дата кодирования : UTC 2017-11-25 22: 23: 52
    Программа кодирования : mkvmerge v8.3.0 (\'Over the Horizon\') 64bit
    Библиотека кодирования : libebml v1.3.1 + libmatroska v1.4.2
    Видео
    Идентификатор : 1
    Формат : AVC
    Формат/Информация : Advanced Video Codec
    Профиль формата : High@L4.1
    Настройки формата : CABAC/5 Ref Frames
    Параметр CABAC формата : Да
    Параметр RefFrames формата : 5 кадров
    Идентификатор кодека : V_MPEG4/ISO/AVC
    Продолжительность : 2 ч. 22 м.
    Вид битрейта : Переменный
    Битрейт : 5202 Кбит/сек
    Максимальный битрейт : 5800 Кбит/сек
    Ширина : 1920 пикселей
    Высота : 802 пикселя
    Соотношение сторон : 2, 40: 1
    Режим частоты кадров : Постоянный
    Частота кадров : 23, 976 (24000/1001) кадра/сек
    Стандарт вещания : Component
    Цветовое пространство : YUV
    Субдискретизация насыщенности : 4: 2: 0
    Битовая глубина : 8 бит
    Тип развёртки : Прогрессивная
    Бит/(Пиксели*Кадры) : 0.141
    Размер потока : 5, 16 Гбайт (93%)
    Default : Да
    Forced : Нет
    Цветовой диапазон : Limited
    Основные цвета : BT.709
    Характеристики трансфера : BT.709
    Коэффициенты матрицы : BT.709
    Аудио
    Идентификатор : 2
    Формат : AC-3
    Формат/Информация : Audio Coding 3
    Идентификатор кодека : A_AC3
    Продолжительность : 2 ч. 22 м.
    Вид битрейта : Постоянный
    Битрейт : 384 Кбит/сек
    Каналы : 2 канала
    Расположение каналов : Front: L R
    Частота : 48, 0 КГц
    Частота кадров : 31, 250 кадров/сек (1536 SPF)
    Битовая глубина : 16 бит
    Метод сжатия : С потерями
    Размер потока : 390 Мбайт (7%)
    ServiceKind/String : Complete Main
    Default : Да
    Forced : Нет

    File: D: ФильмыKingsman.Zolotoe.kol\'co.2017.Dt.WEB-DL.1080p.mkv
    Duration: 02: 22: 06 (8526.18)
    Track #1: video
    lang: und (1)
    codc: V_MPEG4/ISO/AVC - H264/AVC (22)
    reso: 1920x802 (1920x802) - Unknown (aka not common)
    fram: 23.976 fps
    rate: 5202 kbps (5201.95)
    dura: 02: 22: 06 (8526.14)
    size: 5.16 GB (5544069596)
    Track #2: audio
    lang: und - Unknown (1)
    codc: A_AC3 - AC3 (2)
    chan: 2 - Stereo
    samp: 48000 Hz
    rate: 384 kbps (384.04)
    dura: 02: 22: 06 (8525.92)
    size: 390.33 MB (409291171)
    Sizes: (check sanity)
    disk: 5.55 GB (5955331819)
    trac: 1.54 GB (1658393471) based on track size
    bitr: 5.54 GB (5953371087) based on bitrate
    tdif: 4.00 GB (4296938348) 72.15%
    bdif: 1.87 MB (1960731) 0.03%

    Скриншоты для ознакомления


    Все одноименные релизы в Клубе
    Время раздачи: 24/7 (до появления первых 3-5 скачавших)


    Онлайн видео Kingsman: Золотое кольцо



    Kingsman: Золотое кольцо/Kingsman: The Golden Circle (2017) WEB-DLRip [H.264/1080p-LQ] [Звук с TS] [AD]
    Рейтинг →
     (голосов: 1, оценка 3/5, голосовать можно 1 раз )

    Другие торренты по теме:

  • Kingsman: Золотое кольцо / Kingsman: The Golden Circle (2017) TS [H.264 / 720p-LQ] [AD]
  • Kingsman: Золотое кольцо / Kingsman: The Golden Circle (2017) WEB-DLRip [Звук с ТS] [AD]
  • Kingsman: Золотое кольцо / Kingsman: The Golden Circle (2017) WEB-DL [H.264 / 1080p-LQ] [EN / EN Sub]
  • Kingsman: Золотое кольцо / Kingsman: The Golden Circle (2017) WEB-DLRip [H.264] [MVO] [AD]
  • Kingsman: Золотое кольцо / Kingsman: The Golden Circle (2017) WEB-DLRip [MVO] [AD]
  • Kingsman: Золотое кольцо / Kingsman: The Golden Circle (2017) WEB-DLRip [MVO] [AD]
  • Kingsman: Золотое кольцо / Kingsman: The Golden Circle (2017) WEB-DLRip [H.264 / 1080p-LQ] [MVO] [AD]
  • Kingsman: Золотое кольцо / Kingsman: The Golden Circle (2017) BDRip [H.264 / 1080p] [EN / EN Sub]


    • Комментарии (0):

      Информация

      Информация

        Посетители, находящиеся в группе Гости, не могут оставлять комментарии в данной новости.

        ↓ Меню




        ↓ Опрос

        Вы добавили сайт в закладки?
        Да
        Нет


        Top 10 за месяц (Фильмы)