.
Авторизация | Регистрация
Хочешь лучшие торренты? Добавь свой email!
Добавить

Торрент скачать бесплатно

» » Kingsman: Золотое кольцо / Kingsman: The Golden Circle (2017) WEB-DLRip [MVO] [AD] торрент скачать бесплатно




    Kingsman: Золотое кольцо / Kingsman: The Golden Circle (2017) WEB-DLRip [MVO] [AD] торрент скачать бесплатно

    Опубликовал: Админ | Дата: 28-11-2017, 05:00 | Просмотров: 2

    Производство: Великобритания, США/20th Century Fox Film Corporation, Marv Films, Shangri-La Entertainment, TSG Entertainment
    Жанр: Боевик, комедия, приключения
    Режиссер: Мэттью Вон

    Актеры
    Колин Фёрт, Тэрон Эджертон, Эдвард Холкрофт, Гордон Александр, Марк Стронг, Ханна Альстрём, Кэлвин Демба, Томас Тургус, Тоби Бакаре, Джулианна Мур

    Описание

    Когда штаб-квартиры секретной службы Kingsman уничтожены, и весь мир оказался в заложниках у неизвестных, британские суперагенты обнаруживают, что в один день вместе с их организацией была еще создана американская разведка — Statesman. Теперь эти две элитные спецслужбы должны объединиться и бросить вызов общему безжалостному врагу, чтобы спасти мир, то есть заняться тем, что для Эггси становится обычным делом…

    Возраст: 18+ (зрителям, достигшим 18 лет. запрещено для детей)
    Рейтинг MPAA: R (лицам до 17 лет обязательно присутствие взрослого)
    Дата мировой премьеры: 20 сентября 2017
    Дата российской премьеры: 21 сентября 2017
    Продолжительность: 02: 20: 18
    Качество видео: WEB-DLRip
    Перевод: Любительский многоголосый (MUZOBOZ)
    Субтитры: Отсутствуют
    Реклама: Присутствуют текстовые вставки рекламы
    Видео: MPEG4, XviD, 720x304 (2.35: 1), 23.976 fps, 1 262 Kbps (0.240 bit/pixel)
    Аудио: AC-3, 48.0 KHz, 2 ch, 192 Kbps, CBR

    Общее
    Полное имя : D: NNMЗолотое кольцоZolotoe koljco 2017 WEB-DLRip.avi
    Формат : AVI
    Формат/Информация : Audio Video Interleave
    Размер файла : 1, 44 Гбайт
    Продолжительность : 2 ч. 20 м.
    Общий поток : 1465 Кбит/сек
    Видео
    Идентификатор : 0
    Формат : MPEG-4 Visual
    Профиль формата : Advanced Simple@L5
    Параметр BVOP формата : 2
    Параметр QPel формата : Нет
    Параметр GMC формата : Без точки перехода
    Параметр матрицы формата : Default (MPEG)
    Идентификатор кодека : XVID
    Идентификатор кодека/Подсказка : XviD
    Продолжительность : 2 ч. 20 м.
    Битрейт : 1262 Кбит/сек
    Ширина : 720 пикселей
    Высота : 304 пикселя
    Соотношение сторон : 2, 35: 1
    Частота кадров : 23, 976 (24000/1001) кадра/сек
    Цветовое пространство : YUV
    Субдискретизация насыщенности : 4: 2: 0
    Битовая глубина : 8 бит
    Тип развёртки : Прогрессивная
    Метод сжатия : С потерями
    Бит/(Пиксели*Кадры) : 0.240
    Размер потока : 1, 24 Гбайт (86%)
    Библиотека кодирования : XviD 1.2.1 (UTC 2008-12-04)
    Аудио
    Идентификатор : 1
    Формат : AC-3
    Формат/Информация : Audio Coding 3
    Параметр Endianness формата : Big
    Идентификатор кодека : 2000
    Продолжительность : 2 ч. 20 м.
    Вид битрейта : Постоянный
    Битрейт : 192 Кбит/сек
    Каналы : 2 канала
    Расположение каналов : Front: L R
    Частота : 48, 0 КГц
    Частота кадров : 31, 250 кадров/сек (1536 SPF)
    Битовая глубина : 16 бит
    Метод сжатия : С потерями
    Размер потока : 193 Мбайт (13%)
    Выравнивание : Соединение по промежуткам
    Продолжительность промежутка : 32 мс. (0, 77 видеокадр)
    ServiceKind/String : Complete Main

    Скриншоты для ознакомления



    Все одноименные релизы в Клубе Время раздачи: Круглосуточно до 10 скачавших


    Онлайн видео Kingsman: Золотое кольцо



    Kingsman: Золотое кольцо/Kingsman: The Golden Circle (2017) WEB-DLRip [MVO] [AD]
    Рейтинг →
     (голосов: 1, оценка 4/5, голосовать можно 1 раз )

    Другие торренты по теме:

  • Kingsman: Золотое кольцо / Kingsman: The Golden Circle (2017) TS [H.264 / 720p-LQ] [AD]
  • Kingsman: Золотое кольцо / Kingsman: The Golden Circle (2017) WEB-DLRip [Звук с ТS] [AD]
  • Kingsman: Золотое кольцо / Kingsman: The Golden Circle (2017) WEB-DLRip [H.264 / 1080p-LQ] [Звук с TS] [AD]
  • Kingsman: Золотое кольцо / Kingsman: The Golden Circle (2017) WEB-DL [H.264 / 1080p-LQ] [EN / EN Sub]
  • Kingsman: Золотое кольцо / Kingsman: The Golden Circle (2017) WEB-DLRip [H.264] [MVO] [AD]
  • Kingsman: Золотое кольцо / Kingsman: The Golden Circle (2017) WEB-DLRip [MVO] [AD]
  • Kingsman: Золотое кольцо / Kingsman: The Golden Circle (2017) WEB-DLRip [H.264 / 1080p-LQ] [MVO] [AD]
  • Kingsman: Золотое кольцо / Kingsman: The Golden Circle (2017) BDRip [H.264 / 1080p] [EN / EN Sub]


    • Комментарии (0):

      Информация

      Информация

        Посетители, находящиеся в группе Гости, не могут оставлять комментарии в данной новости.

        ↓ Меню




        ↓ Опрос

        Вы добавили сайт в закладки?
        Да
        Нет


        Top 10 за месяц (Фильмы)