.
Авторизация | Регистрация
Хочешь лучшие торренты? Добавь свой email!
Добавить

Торрент скачать бесплатно

» » Kingsman: Золотое кольцо / Kingsman: The Golden Circle (2017) WEB-DLRip [MVO] [AD] торрент скачать бесплатно




    Kingsman: Золотое кольцо / Kingsman: The Golden Circle (2017) WEB-DLRip [MVO] [AD] торрент скачать бесплатно

    Опубликовал: Админ | Дата: 28-11-2017, 05:00 | Просмотров: 1

    Производство: Великобритания, США/20th Century Fox Film Corporation, Marv Films, Shangri-La Entertainment
    Жанр: Боевик, Комедия, Приключения
    Режиссер: Мэттью Вон

    Актеры
    Тэрон Эджертон, Джефф Бриджес, Ченнинг Татум, Джулианна Мур, Колин Фёрт, Педро Паскаль, Холли Берри, Марк Стронг

    Описание

    Когда штаб-квартиры секретной службы Kingsman уничтожены, и весь мир оказался в заложниках у неизвестных, британские суперагенты обнаруживают, что в один день вместе с их организацией была еще создана американская разведка — Statesman. Теперь эти две элитные спецслужбы должны объединиться и бросить вызов общему безжалостному врагу, чтобы спасти мир, то есть заняться тем, что для Эггси становится обычным делом…

    Возраст: 18+ (зрителям, достигшим 18 лет. запрещено для детей)
    Рейтинг MPAA: R (лицам до 17 лет обязательно присутствие взрослого)
    Дата мировой премьеры: 20.09.2017
    Дата российской премьеры: 21.09.2017
    Релиз от: KOSHARA
    Продолжительность: 02: 22: 06
    Качество видео: WEB-DLRip
    Перевод: Многоголосый закадровый, любительский (@MUZOBOZ@)
    Субтитры: отсутствуют
    Реклама: присутствуют аудио и видео вставки рекламы
    Видео: Xvid, 720х304, ~1267 Kbps
    Аудио: AC3, 2 ch, 192 Kbps

    General
    Complete name : /media/win/TORRENT/UPLOAD TORRENTS/Kingsman.The.Golden.Circle.2017.P.WEB-DLRip.1.46Gb.avi
    Format : AVI
    Format/Info : Audio Video Interleave
    File size : 1.46 GiB
    Duration : 2 h 22 min
    Overall bit rate : 1 468 kb/s
    Writing application : VirtualDubMod 1.5.10.2 (build 2540/release)
    Writing library : VirtualDubMod build 2540/release
    Video
    ID : 0
    Format : MPEG-4 Visual
    Format profile : Advanced Simple@L5
    Format settings : BVOP2
    Format settings, BVOP : 2
    Format settings, QPel : No
    Format settings, GMC : No warppoints
    Format settings, Matrix : Default (MPEG)
    Codec ID : XVID
    Codec ID/Hint : XviD
    Duration : 2 h 22 min
    Bit rate : 1 267 kb/s
    Width : 720 pixels
    Height : 304 pixels
    Display aspect ratio : 2.35: 1
    Frame rate : 23.976 (24000/1001) FPS
    Color space : YUV
    Chroma subsampling : 4: 2: 0
    Bit depth : 8 bits
    Scan type : Progressive
    Compression mode : Lossy
    Bits/(Pixel*Frame) : 0.241
    Stream size : 1.26 GiB (86%)
    Writing library : XviD 1.2.1 (UTC 2008-12-04)
    Audio
    ID : 1
    Format : AC-3
    Format/Info : Audio Coding 3
    Codec ID : 2000
    Duration : 2 h 22 min
    Bit rate mode : Constant
    Bit rate : 192 kb/s
    Channel(s) : 2 channels
    Channel positions : Front: L R
    Sampling rate : 48.0 kHz
    Frame rate : 31.250 FPS (1536 SPF)
    Bit depth : 16 bits
    Compression mode : Lossy
    Stream size : 195 MiB (13%)
    Alignment : Split accross interleaves
    Interleave, duration : 42 ms (1.00 video frame)
    Interleave, preload duration : 500 ms
    Service kind : Complete Main

    Скриншоты для ознакомления



    Все одноименные релизы в Клубе
    Время раздачи: с 09: 00 до 22: 00 до пяти скачавших (до появления первых 3-5 скачавших)


    Онлайн видео Kingsman: Золотое кольцо



    Kingsman: Золотое кольцо/Kingsman: The Golden Circle (2017) WEB-DLRip [MVO] [AD]
    Рейтинг →
     (голосов: 1, оценка 5/5, голосовать можно 1 раз )

    Другие торренты по теме:

  • Kingsman: Золотое кольцо / Kingsman: The Golden Circle (2017) TS [H.264 / 720p-LQ] [AD]
  • Kingsman: Золотое кольцо / Kingsman: The Golden Circle (2017) WEB-DLRip [Звук с ТS] [AD]
  • Kingsman: Золотое кольцо / Kingsman: The Golden Circle (2017) WEB-DLRip [H.264 / 1080p-LQ] [Звук с TS] [AD]
  • Kingsman: Золотое кольцо / Kingsman: The Golden Circle (2017) WEB-DL [H.264 / 1080p-LQ] [EN / EN Sub]
  • Kingsman: Золотое кольцо / Kingsman: The Golden Circle (2017) WEB-DLRip [H.264] [MVO] [AD]
  • Kingsman: Золотое кольцо / Kingsman: The Golden Circle (2017) WEB-DLRip [MVO] [AD]
  • Kingsman: Золотое кольцо / Kingsman: The Golden Circle (2017) WEB-DLRip [H.264 / 1080p-LQ] [MVO] [AD]
  • Kingsman: Золотое кольцо / Kingsman: The Golden Circle (2017) BDRip [H.264 / 1080p] [EN / EN Sub]


    • Комментарии (0):

      Информация

      Информация

        Посетители, находящиеся в группе Гости, не могут оставлять комментарии в данной новости.

        ↓ Меню




        ↓ Опрос

        Вы добавили сайт в закладки?
        Да
        Нет


        Top 10 за месяц (Фильмы)