.
Авторизация | Регистрация
Хочешь лучшие торренты? Добавь свой email!
Добавить

Торрент скачать бесплатно

» » Легенда о Коловрате (2017) TS [H.264 / 720p-LQ] [AD] торрент скачать бесплатно




    Легенда о Коловрате (2017) TS [H.264 / 720p-LQ] [AD] торрент скачать бесплатно

    Опубликовал: Админ | Дата: 6-12-2017, 05:00 | Просмотров: 44

    Производство: Россия
    Жанр: История, Боевик, Фэнтези
    Режиссер: Джаник Файзиев, Иван Шурховецкий
    Продюсер: Джаник Файзиев, Рафаел Минасбекян, Павел Степанов

    Актеры
    Илья Малаков, Полина Чернышова, Алексей Серебряков, Александр Ильин мл., Игорь Савочкин, Тимофей Трибунцев, Александр Цой, Юлия Хлынина, Андрей Бурковский, Виктор Проскурин

    Описание

    XIII век. Русь раздроблена и вот-вот падет на колени перед ханом Золотой Орды Батыем. Испепеляя города и заливая русские земли кровью, захватчики не встречают серьезного сопротивления, и лишь один воин бросает им вызов. Молодой рязанский витязь Евпатий Коловрат возглавляет отряд смельчаков, чтобы отомстить за свою любовь и за свою родину. Его отвага поразит даже Батыя, а его имя навсегда останется в памяти народа. Воин, ставший легендой. Подвиг, сохранившийся в веках.

    Возраст: 12+ (зрителям, достигшим 12 лет)
    Дата мировой премьеры: 1 декабря 2017
    Дата российской премьеры: 30 ноября 2017, Централ Партнершип
    Продолжительность: 01: 51: 44
    Качество видео: TS
    Перевод: Не требуется (русский)
    Субтитры: Отсутствуют
    Реклама: Присутствует вставка видео, голосовой и текстовой рекламы
    (одна вставка вырезана, одна осталась)
    Видео: AVC/H.264, 1280x528, ~3502 Kbps
    Аудио: AC3, 2 ch, 384 Kbps

    Общее
    Уникальный идентификатор : 95992234764729482664684359927978543000 (0x48376E935EFEF8CD4D68F284334C4798)
    Полное имя : D: ВидеоtorrrentKoloVraT.2O17.O.TS.72Op.mkv
    Формат : Matroska
    Версия формата : Version 4/Version 2
    Размер файла : 3, 09 Гбайт
    Продолжительность : 1 ч. 51 м.
    Режим общего битрейта : Переменный
    Общий поток : 3965 Кбит/сек
    Программа кодирования : Lavf57.71.100
    Библиотека кодирования : Lavf57.71.100
    ErrorDetectionType : Per level 1
    Видео
    Идентификатор : 1
    Формат : AVC
    Формат/Информация : Advanced Video Codec
    Профиль формата : High@L4.1
    Параметр CABAC формата : Да
    Параметр RefFrames формата : 12 кадров
    Идентификатор кодека : V_MPEG4/ISO/AVC
    Продолжительность : 1 ч. 51 м.
    Вид битрейта : Переменный
    Битрейт : 3502 Кбит/сек
    Максимальный битрейт : 3800 Кбит/сек
    Ширина : 1280 пикселей
    Высота : 528 пикселей
    Соотношение сторон : 2, 40: 1
    Режим частоты кадров : Постоянный
    Частота кадров : 23, 976 (24000/1001) кадра/сек
    Стандарт вещания : Component
    Цветовое пространство : YUV
    Субдискретизация насыщенности : 4: 2: 0
    Битовая глубина : 8 бит
    Тип развёртки : Прогрессивная
    Бит/(Пиксели*Кадры) : 0.216
    Размер потока : 2, 73 Гбайт (88%)
    Default : Да
    Forced : Нет
    Цветовой диапазон : Limited
    Основные цвета : BT.709
    Характеристики трансфера : BT.709
    Коэффициенты матрицы : BT.709
    DURATION : 01: 51: 44.531000000
    Аудио
    Идентификатор : 2
    Формат : AC-3
    Формат/Информация : Audio Coding 3
    Параметр Endianness формата : Big
    Идентификатор кодека : A_AC3
    Продолжительность : 1 ч. 51 м.
    Вид битрейта : Постоянный
    Битрейт : 384 Кбит/сек
    Каналы : 2 канала
    Расположение каналов : Front: L R
    Частота : 48, 0 КГц
    Частота кадров : 31, 250 кадров/сек (1536 SPF)
    Битовая глубина : 16 бит
    Метод сжатия : С потерями
    Размер потока : 307 Мбайт (10%)
    ServiceKind/String : Complete Main
    Default : Да
    Forced : Нет
    DURATION : 01: 51: 44.495000000

    Скриншоты для ознакомления



    Все одноименные релизы в Клубе
    Время раздачи: 24/7 (до появления первых 3-5 скачавших)


    Онлайн видео Легенда о Коловрате (2017) TS [H.264



    Легенда о Коловрате (2017) TS [H.264/720p-LQ] [AD]
    Рейтинг →
     (голосов: 1, оценка 3/5, голосовать можно 1 раз )

    Другие торренты по теме:

  • Легенда о Коловрате (2017) BDRemux [H.264 / 1080p] [GER Transfer]
  • Легенда о Коловрате (2017) Blu-ray [H.264 / 1080p] [GER Transfer]
  • Легенда о Коловрате (2017) WEBRip [H.264 / 1080p] [Трейлер]
  • Легенда о Коловрате (2017) TS [AD]
  • Serj Tankian - Furious / Легенда о Коловрате (2017) [MP3|320 Kbps] <Soundtrack>
  • Вадим Саралидзе | Легенда о Коловрате (2017) [FB2]
  • Легенда о Коловрате (2017) WEB-DL [H.264 / 1080p-LQ]
  • Легенда о Коловрате (2017) WEB-DLRip [H.264]


    • Комментарии (0):

      Информация

      Информация

        Посетители, находящиеся в группе Гости, не могут оставлять комментарии в данной новости.

        ↓ Меню




        ↓ Опрос

        Вы добавили сайт в закладки?
        Да
        Нет


        Top 10 за месяц (Фильмы)