.
Авторизация | Регистрация
Хочешь лучшие торренты? Добавь свой email!
Добавить

Торрент скачать бесплатно

» » Хитровка (2011) TVRip (серии 1-8 из 8) торрент скачать бесплатно




    Хитровка (2011) TVRip (серии 1-8 из 8) торрент скачать бесплатно

    Опубликовал: Админ | Дата: 26-12-2017, 05:00 | Просмотров: 9

    Производство: Россия/Студия ТОН
    Жанр: история
    Режиссер: Александр Хван

    Актеры
    Варвара Андреева, Алексей Барабаш, Николай Басканчин, Игорь Бондаренко, Андрей Гусев, Максим Костромыкин, Павел Крайнов, Артём Маковский, Владимир Остров, Андрей Савостьянов, Владимир Новиков и др.

    Описание

    События Хитровки разворачиваются в Москве в конце XIX века. Хитров рынок (Хитровка) — площадь в центре Москвы. Здесь находили убежище беглые каторжники, обнищавшие горожане, люди, скатившиеся на самое дно. Хитровка стала рассадником преступности в двух шагах от благополучной Солянки и делового Китай-города.
    Главный герой сериала — деревенский кузнец, который был изгнан из родной деревни. В результате он оказывается в Москве, точнее, на Хитровке. Однако он не покоряется судьбе, а делает карьеру — становится заводчиком-миллионером.

    Возраст: 16+ (зрителям, достигшим 16 лет)
    Релиз от: Алехаndr
    Продолжительность: ~00: 22: 00 серия
    Качество видео: TVRip
    Видео: Xvid, 640x352 (16: 9), ~510 Kbps
    Аудио: MP3, 2 ch, 128 Kbps

    Общее
    Полное имя : D: Хитровка (2011).by.АлехаndrСерия 01.01.by.Алехаndr.avi
    Формат : AVI
    Формат/Информация : Audio Video Interleave
    Размер файла : 104 Мбайт
    Продолжительность : 22 м. 15 с.
    Общий поток : 655 Кбит/сек
    Программа кодирования : VirtualDubMod 1.5.10.3 |www.virtualdub-fr.org|| (build 2550/release)
    Библиотека кодирования : VirtualDubMod build 2550/release
    Видео
    Идентификатор : 0
    Формат : MPEG-4 Visual
    Профиль формата : Advanced Simple@L5
    Настройки формата : BVOP2
    Параметр BVOP формата : 2
    Параметр QPel формата : Нет
    Параметр GMC формата : Без точки перехода
    Параметр матрицы формата : Default (H.263)
    Идентификатор кодека : XVID
    Идентификатор кодека/Подсказка : XviD
    Продолжительность : 22 м. 15 с.
    Битрейт : 517 Кбит/сек
    Ширина : 640 пикселей
    Высота : 352 пикселя
    Соотношение сторон : 16: 9
    Частота кадров : 25, 000 кадров/сек
    Цветовое пространство : YUV
    Субдискретизация насыщенности : 4: 2: 0
    Битовая глубина : 8 бит
    Тип развёртки : Прогрессивная
    Метод сжатия : С потерями
    Бит/(Пиксели*Кадры) : 0.092
    Размер потока : 82, 3 Мбайт (79%)
    Библиотека кодирования : XviD 73
    Аудио
    Идентификатор : 1
    Формат : MPEG Audio
    Версия формата : Version 1
    Профиль формата : Layer 3
    Идентификатор кодека : 55
    Идентификатор кодека/Подсказка : MP3
    Продолжительность : 22 м. 15 с.
    Вид битрейта : Постоянный
    Битрейт : 128 Кбит/сек
    Каналы : 2 канала
    Частота : 48, 0 КГц
    Частота кадров : 41, 667 кадра/сек (1152 SPF)
    Метод сжатия : С потерями
    Размер потока : 20, 4 Мбайт (20%)
    Выравнивание : Соединение по промежуткам
    Продолжительность промежутка : 40 мс. (1, 00 видеокадр)
    Время предзагрузки промежутка : 504 мс.
    Библиотека кодирования : LAME3.99r
    Настройки программы : -m s -V 4 -q 2 -lowpass 17 -b 128


    Онлайн видео Хитровка (2011) TVRip (серии 1



    Хитровка (2011) TVRip (серии 1-8 из 8)
    Рейтинг →
     (голосов: 1, оценка 4/5, голосовать можно 1 раз )

    Другие торренты по теме:

  • Нераскрытые тайны. Хитровка (2014) SATRip


    • Комментарии (0):

      Информация

      Информация

        Посетители, находящиеся в группе Гости, не могут оставлять комментарии в данной новости.

        ↓ Меню




        ↓ Опрос

        Вы добавили сайт в закладки?
        Да
        Нет


        Top 10 за месяц (Фильмы)