.
Авторизация | Регистрация
Хочешь лучшие торренты? Добавь свой email!
Добавить

Торрент скачать бесплатно

» » Просто игра (2016) WEBRip торрент скачать бесплатно




    Просто игра (2016) WEBRip торрент скачать бесплатно

    Опубликовал: Админ | Дата: 27-12-2017, 05:00 | Просмотров: 6

    Производство: Россия
    Жанр: Короткометражный
    Режиссер: Сергей Попов

    Актеры
    Владислав Котлярский, Даниил Топорков, Юлия Дегтяренко

    Описание

    Фильм о вернувшемся домой офицере, который застаёт своего племянника в разгар компьютерной игры. Звуки из динамиков будоражат память о недавних боевых действиях. Неожиданно для обоих виртуальный бой превращается в настоящую операцию…

    Релиз от: Алехаndr
    Продолжительность: 00: 16: 14
    Качество видео: WEBRip
    Субтитры: Отсутствуют
    Видео: Xvid, 720x400 (16: 9), ~1090 Kbps
    Аудио: AC3, 2 ch, 192 Kbps

    Общее
    Полное имя : D: Просто игра (2016).by.Алехаndr.avi
    Формат : AVI
    Формат/Информация : Audio Video Interleave
    Размер файла : 150 Мбайт
    Продолжительность : 16 м. 14 с.
    Общий поток : 1292 Кбит/сек
    Программа кодирования : VirtualDubMod 1.5.10.3 |www.virtualdub-fr.org|| (build 2550/release)
    Библиотека кодирования : VirtualDubMod build 2550/release
    Видео
    Идентификатор : 0
    Формат : MPEG-4 Visual
    Профиль формата : Advanced Simple@L5
    Настройки формата : BVOP2
    Параметр BVOP формата : 2
    Параметр QPel формата : Нет
    Параметр GMC формата : Без точки перехода
    Параметр матрицы формата : Default (H.263)
    Идентификатор кодека : XVID
    Идентификатор кодека/Подсказка : XviD
    Продолжительность : 16 м. 14 с.
    Битрейт : 1090 Кбит/сек
    Ширина : 720 пикселей
    Высота : 400 пикселей
    Соотношение сторон : 16: 9
    Частота кадров : 25, 000 кадров/сек
    Цветовое пространство : YUV
    Субдискретизация насыщенности : 4: 2: 0
    Битовая глубина : 8 бит
    Тип развёртки : Прогрессивная
    Метод сжатия : С потерями
    Бит/(Пиксели*Кадры) : 0.151
    Размер потока : 127 Мбайт (84%)
    Библиотека кодирования : XviD 73
    Аудио
    Идентификатор : 1
    Формат : AC-3
    Формат/Информация : Audio Coding 3
    Идентификатор кодека : 2000
    Продолжительность : 16 м. 14 с.
    Вид битрейта : Постоянный
    Битрейт : 192 Кбит/сек
    Каналы : 2 канала
    Расположение каналов : Front: L R
    Частота : 48, 0 КГц
    Частота кадров : 31, 250 кадров/сек (1536 SPF)
    Битовая глубина : 16 бит
    Метод сжатия : С потерями
    Размер потока : 22, 3 Мбайт (15%)
    Выравнивание : Разделение по промежуткам
    Продолжительность промежутка : 40 мс. (1, 00 видеокадр)
    Время предзагрузки промежутка : 500 мс.
    ServiceKind/String : Complete Main

    Скриншоты для ознакомления



    Все одноименные релизы в Клубе
    Время раздачи: 24/7 (круглосуточно) (до появления первых 3-5 скачавших)


    Просто игра (2016) WEBRip
    Рейтинг →
     (голосов: 1, оценка 4/5, голосовать можно 1 раз )

    Другие торренты по теме:

  • В. М. Федорченко (сост.) | Головоломки, которые просто сделать, но не просто решить (2016) [PDF]
  • Просто неотразима / Simply Irresistible (1999) BDRip [H.264 / MPEG-4 AVC] [Hi10P]
  • Просто Джексон (2012) WEB-DLRip скачать через торрент бесплатно
  • "Тарас" | Шоппинг в КИТАЕ это просто. ТАОБАО от начала и до конца (2014) [PDF, TXT, JPG] скачать через торрент бесплатно
  • Николай Паленко | Физика гравитации и структура атомного ядра. Просто о сложном (2012) [PDF]
  • Wallpapers - Девушки - модели, знаменитости и просто красавицы|от Bega [JPEG, PNG]
  • Просто кровь / Blood Simple (1984) BDRip [1080p] [Directors Cut]
  • Просто добавь воды / Just Add Water (2008) DVDRip


    • Комментарии (0):

      Информация

      Информация

        Посетители, находящиеся в группе Гости, не могут оставлять комментарии в данной новости.

        ↓ Меню




        ↓ Опрос

        Вы добавили сайт в закладки?
        Да
        Нет


        Top 10 за месяц (Фильмы)