.
Авторизация | Регистрация
Хочешь лучшие торренты? Добавь свой email!
Добавить

Торрент скачать бесплатно

» » Квартирник на НТВ у Маргулиса. Новогодний выпуск (12.30.2017) WEBRip [H.264 / 1080p-LQ] торрент скачать бесплатно




    Квартирник на НТВ у Маргулиса. Новогодний выпуск (12.30.2017) WEBRip [H.264 / 1080p-LQ] торрент скачать бесплатно

    Опубликовал: Админ | Дата: 1-01-2018, 05:00 | Просмотров: 5

    Производство:
    Жанр: Концерт

    Описание

    В преддверии Нового года в гости к Евгению Маргулису пришли популярные и всеми любимые артисты. Телезрители смогли услышать песни из известных кинофильмов в исполнении Александра Пушного, Валерия Сюткина, Александра Олешко, а также групп Город 312, Uma2rmaH, Дюна и др.
    Релиз от: Алехаndr
    Продолжительность: 02: 03: 30
    Качество видео: WEBRip
    Субтитры: Отсутствуют
    Видео: AVC/H.264, 1920x1080 (16: 9), ~3810 Kbps
    Аудио: AC3, 2 ch, 192 Kbps

    Общее
    Уникальный идентификатор : 318243121187002699906561373969491241423 (0xEF6B654A8F1C5027DC67342AE67529CF)
    Полное имя : F: Квартирник НТВ у Маргулиса (Новогодний выпуск).by.Алехаndr.mkv
    Формат : Matroska
    Версия формата : Version 4/Version 2
    Размер файла : 3, 52 Гбайт
    Продолжительность : 2 ч. 3 м.
    Общий поток : 4085 Кбит/сек
    Программа кодирования : Lavf57.71.100
    Библиотека кодирования : Lavf57.71.100
    ErrorDetectionType : Per level 1
    Видео
    Идентификатор : 1
    Формат : AVC
    Формат/Информация : Advanced Video Codec
    Профиль формата : High@L4
    Настройки формата : CABAC/2 Ref Frames
    Параметр CABAC формата : Да
    Параметр RefFrames формата : 2 кадра
    Идентификатор кодека : V_MPEG4/ISO/AVC
    Продолжительность : 2 ч. 3 м.
    Битрейт : 3811 Кбит/сек
    Ширина : 1920 пикселей
    Высота : 1080 пикселей
    Соотношение сторон : 16: 9
    Режим частоты кадров : Постоянный
    Частота кадров : 25, 000 кадров/сек
    Цветовое пространство : YUV
    Субдискретизация насыщенности : 4: 2: 0
    Битовая глубина : 8 бит
    Тип развёртки : Прогрессивная
    Бит/(Пиксели*Кадры) : 0.074
    Размер потока : 3, 29 Гбайт (93%)
    Default : Да
    Forced : Нет
    Цветовой диапазон : Limited
    Основные цвета : BT.709
    Характеристики трансфера : BT.709
    Коэффициенты матрицы : BT.709
    Аудио
    Идентификатор : 2
    Формат : AC-3
    Формат/Информация : Audio Coding 3
    Идентификатор кодека : A_AC3
    Продолжительность : 2 ч. 3 м.
    Вид битрейта : Постоянный
    Битрейт : 192 Кбит/сек
    Каналы : 2 канала
    Расположение каналов : Front: L R
    Частота : 44, 1 КГц
    Частота кадров : 28, 711 кадров/сек (1536 SPF)
    Битовая глубина : 16 бит
    Метод сжатия : С потерями
    Задержка видео : -40 мс.
    Размер потока : 170 Мбайт (5%)
    Язык : Russian
    ServiceKind/String : Complete Main
    Default : Да
    Forced : Нет

    Скриншоты для ознакомления



    Все одноименные релизы в Клубе
    Время раздачи: 24/7 (круглосуточно) (до появления первых 3-5 скачавших)


    Онлайн видео Квартирник на НТВ у Маргулиса. Новогодний выпуск (12.30.2017) WEBRip [H.264



    Квартирник на НТВ у Маргулиса. Новогодний выпуск (12.30.2017) WEBRip [H.264/1080p-LQ]
    Рейтинг →
     (голосов: 1, оценка 3/5, голосовать можно 1 раз )

    Другие торренты по теме:

  • Квартирник у Маргулиса. Новогодний квартирник. Часть 2 (2016) WEBRip скачать через торрент бесплатно
  • Квартирник у Маргулиса. Новогодний квартирник. Часть 1 (2016) WEBRip скачать через торрент бесплатно
  • Квартирник у Маргулиса - Новогодний квартирник (две части) (2015) DVBRip
  • Квартирник у Маргулиса - ЧайФ (2015) DVBRip скачать через торрент бесплатно
  • Квартирник у Маргулиса - Несчастный Случай (2015) DVBRip скачать через торрент бесплатно
  • Квартирник у Маргулиса - СерьГа (2015) DVBRip скачать через торрент бесплатно
  • Квартирник у Маргулиса - Крематорий (2015) DVBRip скачать через торрент бесплатно
  • Квартирник у Маргулиса. 5 выпуск. Чиж (2015) WEBRip скачать через торрент бесплатно


    • Комментарии (0):

      Информация

      Информация

        Посетители, находящиеся в группе Гости, не могут оставлять комментарии в данной новости.

        ↓ Меню




        ↓ Опрос

        Вы добавили сайт в закладки?
        Да
        Нет


        Top 10 за месяц (Фильмы)