.
Авторизация | Регистрация
Хочешь лучшие торренты? Добавь свой email!
Добавить

Торрент скачать бесплатно

» » Викинги в осаде / Viking Siege (2017) WEB-DLRip [MVO] [AD] торрент скачать бесплатно




    Викинги в осаде / Viking Siege (2017) WEB-DLRip [MVO] [AD] торрент скачать бесплатно

    Опубликовал: Админ | Дата: 7-01-2018, 05:00 | Просмотров: 4

    Производство: Великобритания/Tornado Films
    Жанр: Боевик, приключения
    Режиссер: Джек Бертон

    Актеры
    Розанна Холт, Саманта Шнитцлер, Крэйг Расселл, Овайн Риз Дейвис, Жан-Поль Ли, Стив Мео, Анджела Розмари Питерс, Ричард Элис, Ричард Сэндлинг, Клер Ричардсон

    Описание

    Раннее средневековье, тёмные времена, монахи сильны как-никогда и занимаются всем, что приносит прибыль, а больше всего ценятся - рабы. На монастырь, занимающийся продажей людей викингам, нападает нечто невообразимо мерзкое, пришедшее из глубины горящих лесов.

    Дата мировой премьеры: 26 декабря 2017
    Продолжительность: 01: 38: 39
    Качество видео: WEB-DLRip
    Перевод: Профессиональный многоголосый (Синема УС)
    Субтитры: Отсутствуют
    Реклама: Присутствуют вставки текстовой рекламы!
    Видео: MPEG4, XviD, 720x400 (16: 9), 23.976 fps, 1 525 Kbps (0.221 bit/pixel)
    Аудио: AC-3, 48.0 KHz, 2 ch, 384 Kbps, CBR

    Общее
    Полное имя : E: NNMВикинги в осадеViking Siege 2017 WEB-DLRip.avi
    Формат : AVI
    Формат/Информация : Audio Video Interleave
    Профиль формата : OpenDML
    Размер файла : 1, 32 Гбайт
    Продолжительность : 1 ч. 38 м.
    Общий поток : 1921 Кбит/сек
    Видео
    Идентификатор : 0
    Формат : MPEG-4 Visual
    Профиль формата : Advanced Simple@L5
    Настройки формата : BVOP2
    Параметр BVOP формата : 2
    Параметр QPel формата : Нет
    Параметр GMC формата : Без точки перехода
    Параметр матрицы формата : Default (MPEG)
    Идентификатор кодека : XVID
    Идентификатор кодека/Подсказка : XviD
    Продолжительность : 1 ч. 38 м.
    Битрейт : 1525 Кбит/сек
    Ширина : 720 пикселей
    Высота : 400 пикселей
    Соотношение сторон : 16: 9
    Частота кадров : 23, 976 (24000/1001) кадра/сек
    Цветовое пространство : YUV
    Субдискретизация насыщенности : 4: 2: 0
    Битовая глубина : 8 бит
    Тип развёртки : Прогрессивная
    Метод сжатия : С потерями
    Бит/(Пиксели*Кадры) : 0.221
    Размер потока : 1, 05 Гбайт (79%)
    Библиотека кодирования : XviD 1.2.1 (UTC 2008-12-04)
    Аудио
    Идентификатор : 1
    Формат : AC-3
    Формат/Информация : Audio Coding 3
    Идентификатор кодека : 2000
    Продолжительность : 1 ч. 38 м.
    Вид битрейта : Постоянный
    Битрейт : 384 Кбит/сек
    Каналы : 2 канала
    Расположение каналов : Front: L R
    Частота : 48, 0 КГц
    Частота кадров : 31, 250 кадров/сек (1536 SPF)
    Битовая глубина : 16 бит
    Метод сжатия : С потерями
    Размер потока : 271 Мбайт (20%)
    Выравнивание : Соединение по промежуткам
    Продолжительность промежутка : 32 мс. (0, 77 видеокадр)
    ServiceKind/String : Complete Main

    Скриншоты для ознакомления



    Все одноименные релизы в Клубе Время раздачи: Круглосуточно до 10 скачавших


    Онлайн видео Викинги в осаде



    Викинги в осаде/Viking Siege (2017) WEB-DLRip [MVO] [AD]
    Рейтинг →
     (голосов: 1, оценка 4/5, голосовать можно 1 раз )

    Другие торренты по теме:

  • Викинги / Vikings (2014) BD-Remux [1080p] (сезон 2, серии 1-10 из 10) (AlexFilm, NewStudio, LostFilm, BaibaKo) скачать через торрент бесплатно
  • Викинги / Northmen - A Viking Saga (2014) WEB-DLRip [H.264]
  • Викинги / Northmen - A Viking Saga (2014) WEB-DLRip
  • Викинги / Northmen - A Viking Saga (2014) WEB-DL [H.264 / 720p-LQ]
  • Викинги / Northmen - A Viking Saga (2014) WEB-DL [H.264 / 1080p-LQ]
  • Викинги / Outlander (2008) BDRip [1080p] [Open Matte]
  • Викинги / Northmen - A Viking Saga (2014) WEB-DLRip [576p] iPad
  • Викинги / Vikings (2015) HDTVRip [H.264 / 720p-LQ] (сезон 3, серии 1 из 10) (AlexFilm) (обновляемая)


    • Комментарии (0):

      Информация

      Информация

        Посетители, находящиеся в группе Гости, не могут оставлять комментарии в данной новости.

        ↓ Меню




        ↓ Опрос

        Вы добавили сайт в закладки?
        Да
        Нет


        Top 10 за месяц (Фильмы)