.
Авторизация | Регистрация
Хочешь лучшие торренты? Добавь свой email!
Добавить

Торрент скачать бесплатно

» » Калина красная (1973) WEB-DLRip [H.264 / 1080p-LQ] торрент скачать бесплатно




    Калина красная (1973) WEB-DLRip [H.264 / 1080p-LQ] торрент скачать бесплатно

    Опубликовал: Админ | Дата: 9-01-2018, 05:00 | Просмотров: 4

    Производство: СССР - Мосфильм
    Жанр: Драма
    Режиссер: Василий Шукшин

    Актеры
    Василий Шукшин, Лидия Федосеева-Шукшина, Алексей Ванин, Георгий Бурков, Мария Виноградова, Наталия Гвоздикова, Лев Дуров, Николай Погодин, Жанна Прохоренко, Иван Рыжов

    Описание

    Выйдя из тюрьмы, Егор Прокудин решает податься в деревню, где живёт синеглазая незнакомка Люба, с которой он переписывался. Надо немного переждать и осмотреться. Но жизнь в деревне меняет планы Егора, и он решает порвать с прошлым. Теперь у него есть друзья, работа, любимая женщина. Однако бывшие дружки Егора не собираются мириться с его успокоенностью.

    Возраст: 0+ (для любой зрительской аудитории)
    Релиз от: KORSAR
    Продолжительность: 01: 41: 53
    Качество видео: WEB-DLRip
    Субтитры: Английские
    Реклама: Отсутствует
    Видео: AVC/H.264, 1440x1078, ~8500 Kbps
    Аудио 1: AC3, 48 kHz, 5.1 ch, 448 Kbps
    Аудио 2: AC3, 48 kHz, 1 ch, 224 Kbps

    General
    Complete name : Калина красная (1973) WEB-DLRip 1080p.mkv
    Format : Matroska
    Format version : Version 2
    File size : 6.53 GiB
    Duration : 1 h 41 min
    Overall bit rate : 9 175 kb/s
    Encoded date : UTC 2017-01-17 00: 28: 39
    Writing application : mkvmerge v5.8.0 (\'No Sleep/Pillow\') built on Sep 2 2012 15: 37: 04
    Writing library : libebml v1.2.3 + libmatroska v1.3.0
    Video
    ID : 1
    Format : AVC
    Format/Info : Advanced Video Codec
    Format profile : High@L4.1
    Format settings, CABAC : Yes
    Format settings, RefFrames : 5 frames
    Codec ID : V_MPEG4/ISO/AVC
    Duration : 1 h 41 min
    Bit rate : 8 500 kb/s
    Width : 1 440 pixels
    Height : 1 078 pixels
    Display aspect ratio : 4: 3
    Frame rate mode : Constant
    Frame rate : 25.000 FPS
    Color space : YUV
    Chroma subsampling : 4: 2: 0
    Bit depth : 8 bits
    Scan type : Progressive
    Bits/(Pixel*Frame) : 0.219
    Stream size : 5.92 GiB (91%)
    Title : korsar.tv
    Writing library : x264 core 148 r2744kMod b97ae06
    Encoding settings : cabac=1/ref=5/deblock=1: -2: -2/analyse=0x3: 0x113/me=umh/subme=10/psy=1/fade_compensate=0.00/psy_rd=1.05: 0.10/mixed_ref=1/me_range=36/chroma_me=1/trellis=2/8x8dct=1/cqm=0/deadzone=21, 11/fast_pskip=0/chroma_qp_offset=-3/threads=12/lookahead_threads=3/sliced_threads=0/nr=0/decimate=0/interlaced=0/bluray_compat=0/constrained_intra=0/bframes=10/b_pyramid=2/b_adapt=2/b_bias=0/direct=3/weightb=1/open_gop=0/weightp=2/keyint=250/keyint_min=25/scenecut=40/intra_refresh=0/rc=2pass/mbtree=0/bitrate=8500/ratetol=1.0/qcomp=0.63/qpmin=0/qpmax=39/qpstep=4/cplxblur=20.0/qblur=0.5/ip_ratio=1.20/pb_ratio=1.30/aq=3: 0.90
    Language : English
    Default : Yes
    Forced : No
    Color range : Limited
    Color primaries : BT.709
    Transfer characteristics : BT.709
    Matrix coefficients : BT.709
    Audio #1
    ID : 2
    Format : AC-3
    Format/Info : Audio Coding 3
    Format settings, Endianness : Big
    Codec ID : A_AC3
    Duration : 1 h 41 min
    Bit rate mode : Constant
    Bit rate : 448 kb/s
    Channel(s) : 6 channels
    Channel positions : Front: L C R, Side: L R, LFE
    Sampling rate : 48.0 kHz
    Frame rate : 31.250 FPS (1536 SPF)
    Bit depth : 16 bits
    Compression mode : Lossy
    Stream size : 326 MiB (5%)
    Language : Russian
    Service kind : Complete Main
    Default : Yes
    Forced : No
    Audio #2
    ID : 3
    Format : AC-3
    Format/Info : Audio Coding 3
    Format settings, Endianness : Big
    Codec ID : A_AC3
    Duration : 1 h 41 min
    Bit rate mode : Constant
    Bit rate : 224 kb/s
    Channel(s) : 1 channel
    Channel positions : Front: C
    Sampling rate : 48.0 kHz
    Frame rate : 31.250 FPS (1536 SPF)
    Bit depth : 16 bits
    Compression mode : Lossy
    Stream size : 163 MiB (2%)
    Language : Russian
    Service kind : Complete Main
    Default : No
    Forced : No
    Text
    ID : 4
    Format : UTF-8
    Codec ID : S_TEXT/UTF8
    Codec ID/Info : UTF-8 Plain Text
    Language : English
    Default : No
    Forced : No
    Menu
    00: 00: 00.000 : ru: Вечерний звон.... Титры
    00: 04: 12.640 : ru: На свободе
    00: 11: 28.960 : ru: Воровская малина
    00: 16: 18.920 : ru: Люба Байкалова
    00: 25: 05.120 : ru: Старики родители
    00: 34: 57.280 : ru: В баньке
    00: 40: 51.920 : ru: Вечернее застолье
    00: 44: 16.120 : ru: В ночь. Не спится
    00: 46: 39.400 : ru: Нужен праздник!
    01: 00: 36.360 : ru: Французский коньяк
    01: 03: 46.320 : ru: Работа
    01: 12: 55.920 : ru: Мать
    01: 20: 59.280 : ru: Бывший муж
    01: 24: 31.040 : ru: Березки-невестушки
    01: 26: 09.920 : ru: Предчувствие беды
    01: 31: 58.800 : ru: Выстрел

    Скриншоты для ознакомления





    Все одноименные релизы в Клубе
    Время раздачи: 24/7 (до появления первых 3-5 скачавших)


    Онлайн видео Калина красная (1973) WEB-DLRip [H.264



    Калина красная (1973) WEB-DLRip [H.264/1080p-LQ]
    Рейтинг →
     (голосов: 1, оценка 4/5, голосовать можно 1 раз )

    Другие торренты по теме:

  • VA - Калина красная. Душевный шансон (2014) [MP3|256 кб / с]<Шансон> скачать через торрент бесплатно
  • VA - Калина красная. Душевный шансон - 2 (2014) [MP3|256 кб / с]<Шансон> скачать через торрент бесплатно
  • Тайны нашего кино. Калина красная (2015) SATRip скачать через торрент бесплатно
  • Калина красная (1973) HDTVRip [H.264] скачать через торрент бесплатно
  • VA - Калина Красная (Шоферской Спецвыпуск) (2016) [MP3|256 кб / с] <Шансон>
  • VA - Калина красная. Душевный шансон Выпуск 3 (2014) [MP3|256 кб / с] <Шансон>
  • Вика Цыганова - Калина Красная (1997) [FLAC|Lossless|image + .cue] <Chanson>
  • Калина красная (1973) [HDrip / 720p]


    • Комментарии (0):

      Информация

      Информация

        Посетители, находящиеся в группе Гости, не могут оставлять комментарии в данной новости.

        ↓ Меню




        ↓ Опрос

        Вы добавили сайт в закладки?
        Да
        Нет


        Top 10 за месяц (Фильмы)