.
Авторизация | Регистрация
Хочешь лучшие торренты? Добавь свой email!
Добавить

Торрент скачать бесплатно

» » Звёздные войны: Последние джедаи / Star Wars: Episode VIII - The Last Jedi (2017) BDRemux [H.264 / 1080p] торрент скачать бесплатно




    Звёздные войны: Последние джедаи / Star Wars: Episode VIII - The Last Jedi (2017) BDRemux [H.264 / 1080p] торрент скачать бесплатно

    Опубликовал: Админ | Дата: 14-03-2018, 05:00 | Просмотров: 1

    Производство: США/Bad Robot, Lucasfilm Ltd., Truenorth Productions
    Жанр: Фантастика, фэнтези, боевик, приключения
    Режиссер: Райан Джонсон

    Актеры
    Джон Бойега, Дэйзи Ридли, Оскар Айзек, Адам Драйвер, Донал Глисон, Марк Хэмилл, Макс фон Сюдов, Энди Серкис, Лупита Нионго, Энтони Дэниелс ...

    Описание

    Новая история о противостоянии света и тьмы, добра и зла начинается после гибели Хана Соло. В Галактике, где Первый Орден и Сопротивление яростно сражаются друг с другом в войне, героиня Рей пробудила в себе Силу. Но что произойдет, когда она встретится с единственным оставшимся в живых рыцарем-джедаем — Люком Скайуокером?
    Кайло Рен перешел на Темную сторону Силы и убил собственного отца, заняв высокую позицию в Первом Ордене. Но куда приведут его неуемные амбиции, подаренные по наследству грозным дедом Дартом Вейдером? Ситуация обострится еще больше, когда мать Кайло, лидер Сопротивления Лея, вместе с По, Финном и BB-8 приступит к новой миссии.

    Возраст: 16+ (зрителям, достигшим 16 лет)
    Рейтинг MPAA: PG-13 (детям до 13 лет просмотр нежелателен)
    Дата мировой премьеры: 09 декабря 2017
    Дата российской премьеры: 14 декабря 2017
    Цифровой релиз: 13 марта 2018
    Релиз на DVD/Blu-ray: 3 апреля 2018

    Релиз от: NNMClub
    Продолжительность: 02: 31: 51
    Качество видео: BDRemux
    Перевод: Дублированный (iTunes)
    Субтитры: Русские (полные), английские
    Видео: AVC, 1920x1080, 30895 kbps
    Аудио 1: AC-3, 6 ch, 384 Kbps | Русский
    Аудио 2: DTS-HD MA, 6 ch, 4629 Kbps | Английский

    Общее
    Полное имя : Star Wars_Episode VIII - The Last Jed.2017.BDRemux.NNMClub.mkv
    Формат : Matroska
    Версия формата : Version 4/Version 2
    Размер файла : 37, 9 Гбайт
    Продолжительность : 2 ч. 32 м.
    Режим общего битрейта : Переменный
    Общий поток : 35, 7 Мбит/сек
    Название фильма : Star Wars_Episode VIII - The Last Jed.2017.BDRemux.NNMClub
    Дата кодирования : UTC 2018-03-13 17: 48: 20
    Программа кодирования : mkvmerge v21.0.0 (\'Tardigrades Will Inherit The Earth\') 64-bit
    Библиотека кодирования : libebml v1.3.5 + libmatroska v1.4.8
    Видео
    Идентификатор : 1
    Формат : AVC
    Формат/Информация : Advanced Video Codec
    Профиль формата : High@L4.1
    Настройки формата : CABAC/4 Ref Frames
    Параметр CABAC формата : Да
    Параметр RefFrames формата : 4 кадра
    Идентификатор кодека : V_MPEG4/ISO/AVC
    Продолжительность : 2 ч. 31 м.
    Вид битрейта : Переменный
    Битрейт : 30, 7 Мбит/сек
    Максимальный битрейт : 37, 0 Мбит/сек
    Ширина : 1920 пикселей
    Высота : 1080 пикселей
    Соотношение сторон : 16: 9
    Режим частоты кадров : Постоянный
    Частота кадров : 23, 976 (24000/1001) кадра/сек
    Цветовое пространство : YUV
    Субдискретизация насыщенности : 4: 2: 0
    Битовая глубина : 8 бит
    Тип развёртки : Прогрессивная
    Бит/(Пиксели*Кадры) : 0.618
    Размер потока : 32, 6 Гбайт (86%)
    Заголовок : Star Wars_Episode VIII - The Last Jed.2017.BDRemux.NNMClub
    Язык : Finnish
    Default : Нет
    Forced : Нет
    Аудио #1
    Идентификатор : 2
    Формат : AC-3
    Формат/Информация : Audio Coding 3
    Идентификатор кодека : A_AC3
    Продолжительность : 2 ч. 32 м.
    Вид битрейта : Постоянный
    Битрейт : 384 Кбит/сек
    Каналы : 6 каналов
    Расположение каналов : Front: L C R, Side: L R, LFE
    Частота : 48, 0 КГц
    Частота кадров : 31, 250 кадров/сек (1536 SPF)
    Битовая глубина : 16 бит
    Метод сжатия : С потерями
    Размер потока : 418 Мбайт (1%)
    Заголовок : Дублированный (iTunes)
    Язык : Russian
    ServiceKind/String : Complete Main
    Default : Да
    Forced : Нет
    Аудио #2
    Идентификатор : 3
    Формат : DTS
    Формат/Информация : Digital Theater Systems
    Профиль формата : MA/Core
    Идентификатор кодека : A_DTS
    Продолжительность : 2 ч. 31 м.
    Вид битрейта : Переменный/Постоянный
    Битрейт : 4629 Кбит/сек/1509 Кбит/сек
    Каналы : 8 каналов/6 каналов
    Расположение каналов : Front: L C R, Side: L R, Back: L R, LFE/Front: L C R, Side: L R, LFE
    Частота : 48, 0 КГц
    Частота кадров : 93, 750 кадра/сек (512 SPF)
    Битовая глубина : 24 бит
    Метод сжатия : Без потерь/Lossy
    Размер потока : 4, 91 Гбайт (13%)
    Язык : English
    Default : Нет
    Forced : Нет
    Текст #1
    Идентификатор : 4
    Формат : UTF-8
    Идентификатор кодека : S_TEXT/UTF8
    Идентификатор кодека/Информация : UTF-8 Plain Text
    Продолжительность : 2 ч. 23 м.
    Битрейт : 73 бит/сек
    ElementCount : 1980
    Размер потока : 77, 4 Кбайт (0%)
    Заголовок : Полные (iTunes)
    Язык : Russian
    Default : Нет
    Forced : Нет
    Текст #2
    Идентификатор : 5
    Формат : UTF-8
    Идентификатор кодека : S_TEXT/UTF8
    Идентификатор кодека/Информация : UTF-8 Plain Text
    Продолжительность : 2 ч. 20 м.
    Битрейт : 64 бит/сек
    ElementCount : 1580
    Размер потока : 66, 9 Кбайт (0%)
    Заголовок : Полные
    Язык : Russian
    Default : Нет
    Forced : Нет
    Текст #3
    Идентификатор : 6
    Формат : UTF-8
    Идентификатор кодека : S_TEXT/UTF8
    Идентификатор кодека/Информация : UTF-8 Plain Text
    Продолжительность : 2 ч. 20 м.
    Битрейт : 39 бит/сек
    ElementCount : 1569
    Размер потока : 40, 4 Кбайт (0%)
    Язык : English
    Default : Нет
    Forced : Нет
    Текст #4
    Идентификатор : 7
    Формат : UTF-8
    Идентификатор кодека : S_TEXT/UTF8
    Идентификатор кодека/Информация : UTF-8 Plain Text
    Продолжительность : 2 ч. 23 м.
    Битрейт : 45 бит/сек
    ElementCount : 1897
    Размер потока : 47, 9 Кбайт (0%)
    Язык : English
    Default : Нет
    Forced : Нет
    Меню
    00: 00: 00.000 : en: Chapter 01
    00: 00: 18.643 : en: Chapter 02
    00: 01: 45.730 : en: Chapter 03
    00: 03: 11.816 : en: Chapter 04
    00: 07: 43.296 : en: Chapter 05
    00: 12: 48.434 : en: Chapter 06
    00: 13: 44.573 : en: Chapter 07
    00: 16: 29.279 : en: Chapter 08
    00: 19: 59.281 : en: Chapter 09
    00: 22: 51.369 : en: Chapter 10
    00: 26: 04.980 : en: Chapter 11
    00: 27: 22.849 : en: Chapter 12
    00: 31: 24.757 : en: Chapter 13
    00: 32: 54.681 : en: Chapter 14
    00: 35: 27.667 : en: Chapter 15
    00: 38: 11.497 : en: Chapter 16
    00: 41: 53.427 : en: Chapter 17
    00: 44: 29.541 : en: Chapter 18
    00: 46: 51.475 : en: Chapter 19
    00: 51: 41.932 : en: Chapter 20
    00: 53: 50.060 : en: Chapter 21
    00: 55: 41.504 : en: Chapter 22
    00: 57: 39.581 : en: Chapter 23
    00: 59: 16.636 : en: Chapter 24
    01: 02: 05.847 : en: Chapter 25
    01: 03: 07.700 : en: Chapter 26
    01: 05: 41.729 : en: Chapter 27
    01: 07: 03.477 : en: Chapter 28
    01: 10: 25.721 : en: Chapter 29
    01: 13: 30.322 : en: Chapter 30
    01: 17: 43.450 : en: Chapter 31
    01: 20: 53.056 : en: Chapter 32
    01: 24: 17.969 : en: Chapter 33
    01: 26: 23.219 : en: Chapter 34
    01: 27: 59.524 : en: Chapter 35
    01: 30: 49.360 : en: Chapter 36
    01: 32: 54.568 : en: Chapter 37
    01: 35: 53.706 : en: Chapter 38
    01: 37: 10.616 : en: Chapter 39
    01: 39: 12.863 : en: Chapter 40
    01: 42: 07.663 : en: Chapter 41
    01: 45: 03.714 : en: Chapter 42
    01: 49: 35.694 : en: Chapter 43
    01: 52: 20.608 : en: Chapter 44
    01: 56: 04.749 : en: Chapter 45
    01: 58: 52.083 : en: Chapter 46
    02: 03: 11.133 : en: Chapter 47
    02: 06: 39.758 : en: Chapter 48
    02: 11: 43.604 : en: Chapter 49
    02: 15: 12.103 : en: Chapter 50
    02: 20: 16.699 : en: Chapter 51
    02: 23: 39.694 : en: Chapter 52

    Скриншоты для ознакомления



    Все одноименные релизы в Клубе Время раздачи: Круглосуточно до 10 скачавших


    Онлайн видео Звёздные войны: Последние джедаи



    Звёздные войны: Последние джедаи/Star Wars: Episode VIII - The Last Jedi (2017) BDRemux [H.264/1080p]
    Рейтинг →
     (голосов: 1, оценка 3/5, голосовать можно 1 раз )

    Другие торренты по теме:

  • Звёздные войны. Эпизод 5: Империя наносит ответный удар / Star Wars: Episode V - The Empire Strikes Back / Despecialized Edition Theatrical reconstruction HD (1980) BDRip скачать через торрент бесплатно
  • Звёздные войны: Повстанцы / Star Wars: Rebels (2014) WEB-DLRip (Сезон 1, Серий 3 из 16) (LostFilm)
  • Финес и Ферб. Звёздные войны / Phineas and Ferb: Star Wars (2014) WEB-DLRip (ЛанселаП) скачать через торрент бесплатно
  • Звёздные войны: Повстанцы / Star Wars: Rebels (2014) WEB-DLRip [1080p] (Сезон 1, серий 8 из 16) (LostFilm) скачать через торрент бесплатно
  • Звёздные войны: Повстанцы / Star Wars: Rebels (2014) WEB-DLRip (Сезон 1, серий 7 из 16) (Невафильм) (обновляемая)
  • Звёздные войны: Повстанцы 1.0.0 - Официальная игра по мотивам популярного серила [Ru] скачать через торрент бесплатно
  • Звёздные войны: Повстанцы 1.0.2 [Ru / En] скачать через торрент бесплатно
  • Звёздные войны: Сага / Star Wars: The Complete Saga (1977-2005) HDRip [H.264][MP4|960х400] скачать через торрент бесплатно


    • Комментарии (0):

      Информация

      Информация

        Посетители, находящиеся в группе Гости, не могут оставлять комментарии в данной новости.

        ↓ Меню




        ↓ Опрос

        Вы добавили сайт в закладки?
        Да
        Нет


        Top 10 за месяц (Фильмы)