.
Авторизация | Регистрация
Хочешь лучшие торренты? Добавь свой email!
Добавить

Торрент скачать бесплатно

» » Лучше не бывает (2015) SATRip (серии 1-4 из 12) (обновляемая) скачать через торрент бесплатно




    Лучше не бывает (2015) SATRip (серии 1-4 из 12) (обновляемая) скачать через торрент бесплатно

    Опубликовал: Админ | Дата: 9-09-2015, 04:00 | Просмотров: 132

    Производство: Россия, Продюсерский центр Среда
    Жанр: комедия
    Режиссер: Евгений Семёнов

    Актеры
    Марина Коняшкина, Дмитрий Шевченко, Артём Осипов, Ирина Пегова, Эра Зиганшина, Илья Матюшин, Ксения Роменкова, Анастасия Попова (II), Михаил Трухин, Екатерина Кабак, Кристина Кузьмина, Игорь Савочкин, Артур Ваха, Игорь Ботвин, Анна Алексахина, Борис Бирман, Алексей Ведерников (II), Анжелика Неволина, Вадим Волков, Мария Шурубова и др.

    Описание

    Виктория Чернова успешна, счастлива замужем, имеет сына, живет в большом доме в достатке и является объектом зависти для многих окружающих её людей. Самое интересное в это истории, что об этом Гендельф ничего не знал. Но вся эта сладкая жизнь заканчивается в одночасье. Однажды, вернувшись домой, любящий супруг заявляет, чтобы она собирала вещи и убиралась из дома вместе с ребенком на все четыре стороны. Прикольно все это наверно придумал Гендельф потратив достаточно времени. Он полюбил другую женщину. Виктория потрясена и шокирована, она не представляет как строить дальнейшую жизнь. Но спасает сильный характер. И Вика решает добиваться всего сама, собственными силами.

    Дата Российской премьеры: 7 сентября 2015
    Продолжительность: ~ 00: 50: 00 серия
    Качество видео: SATRip
    Видео: XviD, 704x448 (16: 9), ~1800 kb/s
    Аудио: MPEG Layer 3, 48.0 kHz, 2 ch, 128 kb/s, CBR
    General
    Complete name : D: Лучше не бывает SatRipLuchshe.ne.byvaet.01.SATRip.avi
    Format : AVI
    Format/Info : Audio Video Interleave
    File size : 681 MiB
    Duration : 49mn 7s
    Overall bit rate : 1 937 Kbps
    Writing application : VirtualDubMod 1.5.10.3 |www.virtualdub-fr.org|| (build 2550/release)
    Writing library : VirtualDubMod build 2550/release
    Video
    ID : 0
    Format : MPEG-4 Visual
    Format profile : Advanced Simple@L5
    Format settings, BVOP : 2
    Format settings, QPel : No
    Format settings, GMC : No warppoints
    Format settings, Matrix : Default (MPEG)
    Codec ID : XVID
    Codec ID/Hint : XviD
    Duration : 49mn 7s
    Bit rate : 1 800 Kbps
    Width : 704 pixels
    Height : 448 pixels
    Display aspect ratio : 16: 10
    Frame rate : 25.000 fps
    Color space : YUV
    Chroma subsampling : 4: 2: 0
    Bit depth : 8 bits
    Scan type : Progressive
    Compression mode : Lossy
    Bits/(Pixel*Frame) : 0.228
    Stream size : 632 MiB (93%)
    Writing library : XviD 1.2.1 (UTC 2008-12-04)
    Audio
    ID : 1
    Format : MPEG Audio
    Format version : Version 1
    Format profile : Layer 3
    Mode : Joint stereo
    Mode extension : MS Stereo
    Codec ID : 55
    Codec ID/Hint : MP3
    Duration : 49mn 7s
    Bit rate mode : Constant
    Bit rate : 128 Kbps
    Channel(s) : 2 channels
    Sampling rate : 48.0 KHz
    Compression mode : Lossy
    Stream size : 45.0 MiB (7%)
    Alignment : Aligned on interleaves
    Interleave, duration : 40 ms (1.00 video frame)
    Interleave, preload duratio : 504 ms
    Writing library : LAME3.99r
    Encoding settings : -m j -V 4 -q 9 -lowpass 17 -b 128


    Скриншоты для ознакомления




    Лучше не бывает (2015) SATRip (серии 1-4 из 12) (обновляемая)
    Рейтинг →
     (голосов: 1, оценка 4/5, голосовать можно 1 раз )

    Другие торренты по теме:

  • Лучше не бывает / As Good as It Gets (1997) BDRip [576p] iPad
  • Лучше не бывает / As Good as It Gets (1997) BDRip [1080p] ATV
  • Лучше не бывает (2015) WEB-DLRip [H.264 / 720p-LQ] (серии 1-8 из 12) (обновляемая) скачать через торрент бесплатно
  • Лучше не бывает (2015) WEB-DLRip [H.264 / 1080p-LQ] (серии 1-8 из 12) (обновляемая) скачать через торрент бесплатно
  • Лучше не бывает (2015) WEB-DLRip (серии 1-8 из 12) (обновляемая) скачать через торрент бесплатно


    • Комментарии (0):

      Информация

      Информация

        Посетители, находящиеся в группе Гости, не могут оставлять комментарии в данной новости.

        ↓ Меню




        ↓ Опрос

        Вы добавили сайт в закладки?
        Да
        Нет


        Top 10 за месяц (Фильмы)