.
Авторизация | Регистрация
Хочешь лучшие торренты? Добавь свой email!
Добавить

Торрент скачать бесплатно

» » Cтрела / Аrrow (2015) HDTVRip [H.264 / 720p-LQ] (сезон 4, серии 1-5 из 23) Jaskier (обновляемая) скачать через торрент бесплатно




    Cтрела / Аrrow (2015) HDTVRip [H.264 / 720p-LQ] (сезон 4, серии 1-5 из 23) Jaskier (обновляемая) скачать через торрент бесплатно

    Опубликовал: Админ | Дата: 7-11-2015, 04:00 | Просмотров: 58

    Производство: США /CW , Warner Brothers Television, DC Entertainment
    Жанр: боевик, приключения, криминал
    Режиссер: Джон Беринг, Гай Норман Би, Глен Винтер

    Актеры
    Кэти Кэссиди, Уилла Холлэнд, Пол Блекторн, Джейми Шеридан, Стивен Амелл, Даррен Шахлави, Колин Сэлмон, Сузанна Томпсон и др.

    Описание

    После кораблекрушения, плейбой миллиардер Оливер Куин пропадает и считается погибшим в течение пяти лет, после чего его обнаруживают живым на затерянном острове в Тихом океане. Когда он возвращается домой в Старлинг-Сити, его преданная мать Мойра, столь любимая сестра Теа, и лучший друг Томми приветствуют его дома, но они видят, что Оливер изменился после испытаний на острове. Хотя Оливер скрывает правду о человеке, которым он стал...

    Продолжительность: ~00: 42: 00 серия
    Качество видео: HDTVRip
    Перевод: Многоголосый закадровый, профессиональный - СтудияJaskier
    Видео: AVC/H.264, 1280x720 (16: 9), ~3591 kbps kbps
    Аудио 1 Rus: AC3, 48 kHz, 2 ch, 192 kbps - многоголосый закадровый
    Аудио 2 Eng: AC3, 48 kHz, 6 ch, 384 kbps - оригинал
    Код:

    General
    Unique ID : 245857369977601991242705882397607133509 (0xB8F66836F8FD2BCBB85CA2DAA57B0145)
    Complete name : M:Arrow.S04E01.720p.HDTV.X264-JASKIER.mkv
    Format : Matroska
    Format version : Version 1
    File size : 1.07 GiB
    Duration : 42mn 27s
    Overall bit rate : 3 615 Kbps
    Encoded date : UTC 2015-10-09 00:39:35
    Writing application : mkvmerge v2.3.0 (\'Freak U\') built on Sep 8 2008 18:32:16
    Writing library : libebml v0.7.7 + libmatroska v0.8.1
    Video
    ID : 1
    Format : AVC
    Format/Info : Advanced Video Codec
    Format profile :High@L4.1
    Format settings, CABAC : Yes
    Format settings, ReFrames : 8 frames
    Codec ID : V_MPEG4/ISO/AVC
    Duration : 42mn 27s
    Bit rate : 2 967 Kbps
    Width : 1 280 pixels
    Height : 720 pixels
    Display aspect ratio : 16:9
    Frame rate mode : Constant
    Frame rate : 23.976 fps
    Color space : YUV
    Chroma subsampling : 4:2:0
    Bit depth : 8 bits
    Scan type : Progressive
    Bits/(Pixel*Frame) : 0.134
    Stream size : 901 MiB (82%)
    Writing library : x264 core 148 r2597 e86f3a1
    Encoding settings : cabac=1/ref=8/deblock=1:-2:-2/analyse=0x3:0x113/me=umh/subme=9/psy=1/psy_rd=1.00:0.00/mixed_ref=1/me_range=24/chroma_me=1/trellis=1/8x8dct=1/cqm=0/deadzone=21, 11/fast_pskip=0/chroma_qp_offset=-2/threads=18/lookahead_threads=2/sliced_threads=0/nr=0/decimate=1/interlaced=0/bluray_compat=0/constrained_intra=0/bframes=5/b_pyramid=2/b_adapt=2/b_bias=0/direct=3/weightb=1/open_gop=0/weightp=2/keyint=250/keyint_min=23/scenecut=40/intra_refresh=0/rc_lookahead=50/rc=crf/mbtree=1/crf=18.0/qcomp=0.60/qpmin=0/qpmax=69/qpstep=4/ip_ratio=1.40/aq=1:1.00
    Language : English
    Default : Yes
    Forced : No
    Audio #1
    ID : 2
    Format : AC-3
    Format/Info : Audio Coding 3
    Mode extension : CM (complete main)
    Format settings, Endianness : Big
    Codec ID : A_AC3
    Duration : 42mn 27s
    Bit rate mode : Constant
    Bit rate : 192 Kbps
    Channel(s) : 2 channels
    Channel positions : Front: L R
    Sampling rate : 48.0 KHz
    Compression mode : Lossy
    Stream size : 58.3 MiB (5%)
    Language : Russian
    Default : Yes
    Forced : No
    Audio #2
    ID : 3
    Format : AC-3
    Format/Info : Audio Coding 3
    Mode extension : CM (complete main)
    Format settings, Endianness : Big
    Codec ID : A_AC3
    Duration : 42mn 27s
    Bit rate mode : Constant
    Bit rate : 384 Kbps
    Channel(s) : 6 channels
    Channel positions : Front: L C R, Side: L R, LFE
    Sampling rate : 48.0 KHz
    Compression mode : Lossy
    Stream size : 117 MiB (11%)
    Language : English
    Default : No
    Forced : No


    Скриншоты для ознакомления




    Онлайн видео Cтрела



    Cтрела/Аrrow (2015) HDTVRip [H.264/720p-LQ] (сезон 4, серии 1-5 из 23) Jaskier (обновляемая)
    Рейтинг →
     (голосов: 1, оценка 5/5, голосовать можно 1 раз )

    Другие торренты по теме:



      Комментарии (0):

      Информация

      Информация

        Посетители, находящиеся в группе Гости, не могут оставлять комментарии в данной новости.

        ↓ Меню




        ↓ Опрос

        Вы добавили сайт в закладки?
        Да
        Нет


        Top 10 за месяц (Фильмы)