.
Авторизация | Регистрация
Хочешь лучшие торренты? Добавь свой email!
Добавить

Торрент скачать бесплатно

» » Пассажир / Le passager (2015) HDTVRip [H.264 / 720p-LQ] (сезон 1, серии 1-6 из 6) Project Web Mania торрент скачать бесплатно




    Пассажир / Le passager (2015) HDTVRip [H.264 / 720p-LQ] (сезон 1, серии 1-6 из 6) Project Web Mania торрент скачать бесплатно

    Опубликовал: Админ | Дата: 25-03-2016, 16:55 | Просмотров: 46

    Производство: Франция/Europacorp Television, France Tlvisions
    Жанр: Триллер
    Режиссер: Жером Корнюо

    Актеры
    Жан-Юг Англад, Рафаэль Агоге, Микаэль Коэн, Осине Шутри, Дидье Фламан, Матье Симоне, Жан-Клод Дофен, Микаэль Абитбуль, Серж Рябукин, Слиман Йефса, Мари Гийяр, Жан-Мишель Лами, Жак Вебер

    Описание

    Мини-сериал Пассажир (Le passager ) снят по мотивам одноименного бестселлера Жан-Кристофа Гранже. На вокзале Бордо обнаружен труп неизвестного, на голову которого убийца-изувер насадил огромную голову быка. Мифологическая символика ясна сразу — Минотавр в лабиринте железнодорожных путей. Задержанного неподалеку от места преступления человека, находящегося в состоянии полной амнезии, отправляют в психиатрическую клинику к доктору Матиасу Фреру. Встреча с пациентом приводит его к ужасному открытию: у него тот же синдром пассажира без багажа. Раз за разом он теряет память и привычно из осколков прошлого создает себе новую личность. Чтобы обрести свое подлинное я, ему придется пройти через все свои прежние ипостаси. Самое интересное в это истории, что об этом Человек паук ничего не знал. Фрера преследуют загадочные убийцы в черном, за ним гонится полиция, убежденная, что именно он - серийный маньяк, совершивший жуткие убийства, имитирующие древнегреческие мифы. Да он и сам не уверен в своей невиновности… Как ему выбраться из этого лабиринта? Быть может, лейтенант полиции Анаис Шатле, для которой он - главный подозреваемый, дарует ему путеводную нить?..

    Продолжительность: ~00: 47: 00 серия
    Качество видео: HDTVRip
    Перевод: Двуголосый закадровый, любительский -Project Web Mania
    Автор перевода: dadadana, Seabiscuit
    Видео: AVC/H.264, 1280x720 (16: 9), ~3525 Kbps
    Аудио #1 Rus: AC3, 2 ch, 192 Kbps — двуголосый закадровый, любительский
    Аудио #2 French: AC3, 2 ch, 384 Kbps — оригинал
    Код:

    Общее
    Полное имя : E:CINEMAСЕРИАЛЫLe Passager S01 720p (2015) HDTV - MediaClubLe Passager S01 720p (2015) HDTV - MediaClubLe.Passager.s01e01.720p.HDTV.Rus.Fre_MediaClub.mkv
    Формат : Matroska
    Версия формата : Version 4/Version 2
    Размер файла : 1, 37 Гбайт
    Продолжительность : 47 м.
    Общий поток : 4099 Кбит/сек
    Название фильма : ReJIiZ MediaClub
    Дата кодирования : UTC 2016-03-18 19:52:59
    Программа кодирования : mkvmerge v7.5.0 (\'Glass Culture\') 64bit built on Jan 4 2015 16:48:44
    Библиотека кодирования : libebml v1.3.1 + libmatroska v1.4.2
    Видео
    Идентификатор : 1
    Формат : AVC
    Формат/Информация : Advanced Video Codec
    Профиль формата :High@L4.1
    Параметр CABAC формата : Да
    Параметр ReFrames формата : 5 кадров
    Идентификатор кодека : V_MPEG4/ISO/AVC
    Продолжительность : 47 м.
    Битрейт : 3525 Кбит/сек
    Ширина : 1280 пикселей
    Высота : 720 пикселей
    Соотношение сторон : 16:9
    Соотношение сторон в оригинале : 16:9
    Режим частоты кадров : Постоянный
    Частота кадров : 25, 000 кадров/сек
    Цветовое пространство : YUV
    Субдискретизация насыщенности : 4:2:0
    Битовая глубина : 8 бит
    Тип развёртки : Прогрессивная
    Бит/(Пиксели*Кадры) : 0.153
    Размер потока : 1, 18 Гбайт (86%)
    Библиотека кодирования : x264 core 148 r2638 7599210
    Default : Да
    Forced : Нет
    Аудио #1
    Идентификатор : 2
    Формат : AC-3
    Формат/Информация : Audio Coding 3
    Расширение режима : CM (complete main)
    Параметр Endianness формата : Big
    Идентификатор кодека : A_AC3
    Продолжительность : 47 м.
    Вид битрейта : Постоянный
    Битрейт : 192 Кбит/сек
    Каналы : 2 канала
    Расположение каналов : Front: L R
    Частота : 48, 0 КГц
    Частота кадров : 31, 250 кадров/сек (1536 spf)
    Метод сжатия : С потерями
    Размер потока : 65, 6 Мбайт (5%)
    Заголовок : Project Web Mania
    Язык : Russian
    Default : Да
    Forced : Нет
    Аудио #2
    Идентификатор : 3
    Формат : AC-3
    Формат/Информация : Audio Coding 3
    Расширение режима : CM (complete main)
    Параметр Endianness формата : Big
    Идентификатор кодека : A_AC3
    Продолжительность : 47 м.
    Вид битрейта : Постоянный
    Битрейт : 384 Кбит/сек
    Каналы : 2 канала
    Расположение каналов : Front: L R
    Частота : 48, 0 КГц
    Частота кадров : 31, 250 кадров/сек (1536 spf)
    Метод сжатия : С потерями
    Задержка видео : 24 мс.
    Размер потока : 131 Мбайт (9%)
    Язык : French
    Default : Нет
    Forced : Нет


    Скриншоты для ознакомления




    Онлайн видео Пассажир



    Пассажир/Le passager (2015) HDTVRip [H.264/720p-LQ] (сезон 1, серии 1-6 из 6) Project Web Mania
    Рейтинг →
     (голосов: 1, оценка 3/5, голосовать можно 1 раз )

    Другие торренты по теме:

  • Пассажир дождя / Le passager de la pluie (1969) DVDRip [H.264]
  • Пассажир дождя / Le passager de la pluie (1969) BDRemux [H.264 / 1080p] [French Version]


    • Комментарии (0):

      Информация

      Информация

        Посетители, находящиеся в группе Гости, не могут оставлять комментарии в данной новости.

        ↓ Меню




        ↓ Опрос

        Вы добавили сайт в закладки?
        Да
        Нет


        Top 10 за месяц (Фильмы)