.
Авторизация | Регистрация
Хочешь лучшие торренты? Добавь свой email!
Добавить

Торрент скачать бесплатно

» » Гравитация / Gravity (2013) HDRip [H.264] [MP4|1280x534] торрент скачать бесплатно




    Гравитация / Gravity (2013) HDRip [H.264] [MP4|1280x534] торрент скачать бесплатно

    Опубликовал: Админ | Дата: 12-01-2018, 05:00 | Просмотров: 1

    Производство: США, Великобритания/Reality Media
    Жанр: Фантастика, Триллер, Драма
    Режиссер: Альфонсо Куарон
    Продюсер: Альфонсо Куарон, Дэвид Хейман, Кристофер ДеФариа
    Актеры: Сандра Буллок, Джордж Клуни, Эд Харрис, Орто Игнатиуссен, Фалдут Шарма, Эми Уоррен, Башер Саваж, Дженис Ахерн

    Описание

    Доктор Райан Стоун, блестящий специалист в области медицинского инжиниринга, отправляется в свою первую космическую миссию под командованием ветерана астронавтики Мэтта Ковальски, для которого этот полет — последний перед отставкой. Но во время, казалось бы, рутинной работы за бортом случается катастрофа.

    Возраст: 12+ (зрителям, достигшим 12 лет)
    Рейтинг MPAA: PG-13 (детям до 13 лет просмотр нежелателен)
    Дата мировой премьеры: 28 августа 2013
    Дата российской премьеры: 3 октября 2013
    Продолжительность: 01: 30: 58
    Качество видео: HDRip
    Перевод: Дублированный (Лицензия)
    Субтитры: Русские (форсированные, полные), Английские (полные)
    Видео: AVC/H.264, 1280x534, ~1415 Kbps
    Аудио: AAC, 2 ch, ~129 Kbps

    Общее
    Полное имя : E: DownloadГравитация 2013 720p.mp4
    Формат : MPEG-4
    Профиль формата : Base Media
    Идентификатор кодека : isom (isom/avc1)
    Размер файла : 1006 Мбайт
    Продолжительность : 1 ч. 30 м.
    Режим общего битрейта : Переменный
    Общий поток : 1547 Кбит/сек
    Дата кодирования : UTC 2018-01-10 08: 59: 35
    Дата пометки : UTC 2018-01-10 08: 59: 35
    Видео
    Идентификатор : 1
    Формат : AVC
    Формат/Информация : Advanced Video Codec
    Профиль формата : High@L3.1
    Настройки формата : CABAC/1 Ref Frames
    Параметр CABAC формата : Да
    Параметр RefFrames формата : 1 кадр
    Параметр GOP формата : M=1, N=60
    Идентификатор кодека : avc1
    Идентификатор кодека/Информация : Advanced Video Coding
    Продолжительность : 1 ч. 30 м.
    Битрейт : 1415 Кбит/сек
    Максимальный битрейт : 4889 Кбит/сек
    Ширина : 1280 пикселей
    Высота : 534 пикселя
    Соотношение сторон : 2, 40: 1
    Режим частоты кадров : Постоянный
    Частота кадров : 23, 976 (24000/1001) кадра/сек
    Цветовое пространство : YUV
    Субдискретизация насыщенности : 4: 2: 0
    Битовая глубина : 8 бит
    Тип развёртки : Прогрессивная
    Бит/(Пиксели*Кадры) : 0.086
    Размер потока : 921 Мбайт (92%)
    Дата кодирования : UTC 2018-01-10 08: 59: 35
    Дата пометки : UTC 2018-01-10 09: 01: 50
    Цветовой диапазон : Limited
    Основные цвета : BT.709
    Характеристики трансфера : BT.709
    Коэффициенты матрицы : BT.709
    Аудио
    Идентификатор : 2
    Формат : AAC
    Формат/Информация : Advanced Audio Codec
    Профиль формата : Main
    Идентификатор кодека : mp4a-40-1
    Продолжительность : 1 ч. 30 м.
    Вид битрейта : Переменный
    Битрейт : 129 Кбит/сек
    Максимальный битрейт : 140 Кбит/сек
    Каналы : 2 канала
    Расположение каналов : Front: L R
    Частота : 48, 0 КГц
    Частота кадров : 46, 875 кадров/сек (1024 SPF)
    Метод сжатия : С потерями
    Размер потока : 83, 6 Мбайт (8%)
    Заголовок : Дублированный (Лицензия)
    Язык : Russian
    Дата кодирования : UTC 2018-01-10 09: 01: 38
    Дата пометки : UTC 2018-01-10 09: 01: 50
    Текст #1
    Идентификатор : 3
    Формат : Timed Text
    Идентификатор кодека : tx3g
    Продолжительность : 1 ч. 30 м.
    Вид битрейта : Переменный
    Битрейт : 1 бит/сек
    Размер потока : 568 байт (0%)
    Заголовок : Forced
    Язык : Russian
    Forced : Нет
    Дата кодирования : UTC 2018-01-10 09: 01: 50
    Дата пометки : UTC 2018-01-10 09: 01: 50
    Текст #2
    Идентификатор : 4
    Формат : Timed Text
    Идентификатор кодека : tx3g
    Продолжительность : 1 ч. 24 м.
    Вид битрейта : Переменный
    Битрейт : 64 бит/сек
    Размер потока : 39, 5 Кбайт (0%)
    Заголовок : Full
    Язык : Russian
    Forced : Нет
    Дата кодирования : UTC 2018-01-10 09: 01: 50
    Дата пометки : UTC 2018-01-10 09: 01: 50
    Текст #3
    Идентификатор : 5
    Формат : Timed Text
    Идентификатор кодека : tx3g
    Продолжительность : 1 ч. 30 м.
    Вид битрейта : Переменный
    Битрейт : 55 бит/сек
    Размер потока : 36, 7 Кбайт (0%)
    Заголовок : Full
    Язык : English
    Forced : Нет
    Дата кодирования : UTC 2018-01-10 09: 01: 50
    Дата пометки : UTC 2018-01-10 09: 01: 50
    Скриншоты:


    Все одноименные релизы в Клубе
    Время раздачи: с 9: 00 до 21: 00 (до появления первых 3-5 скачавших)


    Гравитация/Gravity (2013) HDRip [H.264] [MP4|1280x534]
    Рейтинг →
     (голосов: 1, оценка 4/5, голосовать можно 1 раз )

    Другие торренты по теме:

  • Гравитация / Gravity (2013) BDRip [H.264] скачать через торрент бесплатно
  • Гравитация / Gravity (2013) BDRip [1080p] 3D [Вертикальная анаморфная стереопара] [hand made 60fps] скачать через торрент бесплатно
  • Гравитация / Gravity (2013) BDRip [H.264]
  • Гравитация / Gravity (2013) BDRip [H.264 / 720р] [hand made 48fps]
  • Гравитация / Gravity (2013) HDRip [H.264] [MP4|1920x800]
  • BBC: Я и гравитация. Сила, формирующая нашу жизнь / Gravity and Me. The Force That Shapes Our Lives (2017) HDTVRip [H.264 / 720p-LQ]


    • Комментарии (0):

      Информация

      Информация

        Посетители, находящиеся в группе Гости, не могут оставлять комментарии в данной новости.

        ↓ Меню




        ↓ Опрос

        Вы добавили сайт в закладки?
        Да
        Нет


        Top 10 за месяц (КПК и мобильные)