.
Авторизация | Регистрация
Хочешь лучшие торренты? Добавь свой email!
Добавить

Торрент скачать бесплатно

» » Гравитация / Gravity (2013) HDRip [H.264] [MP4|1920x800] торрент скачать бесплатно




    Гравитация / Gravity (2013) HDRip [H.264] [MP4|1920x800] торрент скачать бесплатно

    Опубликовал: Админ | Дата: 12-01-2018, 05:00 | Просмотров: 0

    Производство: США, Великобритания/Reality Media
    Жанр: Фантастика, Триллер, Драма
    Режиссер: Альфонсо Куарон
    Продюсер: Альфонсо Куарон, Дэвид Хейман, Кристофер ДеФариа
    Актеры: Сандра Буллок, Джордж Клуни, Эд Харрис, Орто Игнатиуссен, Фалдут Шарма, Эми Уоррен, Башер Саваж, Дженис Ахерн

    Описание

    Доктор Райан Стоун, блестящий специалист в области медицинского инжиниринга, отправляется в свою первую космическую миссию под командованием ветерана астронавтики Мэтта Ковальски, для которого этот полет — последний перед отставкой. Но во время, казалось бы, рутинной работы за бортом случается катастрофа.

    Возраст: 12+ (зрителям, достигшим 12 лет)
    Рейтинг MPAA: PG-13 (детям до 13 лет просмотр нежелателен)
    Дата мировой премьеры: 28 августа 2013
    Дата российской премьеры: 3 октября 2013
    Продолжительность: 01: 30: 58
    Качество видео: HDRip
    Перевод: Дублированный (Лицензия)
    Субтитры: Русские (форсированные, полные), Английские (полные)
    Видео: AVC/H.264, 1920x800, ~2034 Kbps
    Аудио: AC3, 6 ch, 384 Kbps

    Общее
    Полное имя : E: DownloadГравитация 2013 1080p.mp4
    Формат : MPEG-4
    Профиль формата : Base Media
    Идентификатор кодека : isom (isom/avc1/iso6)
    Размер файла : 1, 54 Гбайт
    Продолжительность : 1 ч. 30 м.
    Режим общего битрейта : Переменный
    Общий поток : 2421 Кбит/сек
    Дата кодирования : UTC 2018-01-10 09: 11: 20
    Дата пометки : UTC 2018-01-10 09: 11: 20
    Видео
    Идентификатор : 1
    Формат : AVC
    Формат/Информация : Advanced Video Codec
    Профиль формата : High@L4
    Настройки формата : CABAC/2 Ref Frames
    Параметр CABAC формата : Да
    Параметр RefFrames формата : 2 кадра
    Идентификатор кодека : avc1
    Идентификатор кодека/Информация : Advanced Video Coding
    Продолжительность : 1 ч. 30 м.
    Битрейт : 2034 Кбит/сек
    Максимальный битрейт : 7502 Кбит/сек
    Ширина : 1920 пикселей
    Высота : 800 пикселей
    Соотношение сторон : 2, 40: 1
    Режим частоты кадров : Постоянный
    Частота кадров : 23, 976 (24000/1001) кадра/сек
    Цветовое пространство : YUV
    Субдискретизация насыщенности : 4: 2: 0
    Битовая глубина : 8 бит
    Тип развёртки : Прогрессивная
    Бит/(Пиксели*Кадры) : 0.055
    Размер потока : 1, 29 Гбайт (84%)
    Дата кодирования : UTC 2018-01-10 09: 11: 20
    Дата пометки : UTC 2018-01-10 09: 13: 42
    Цветовой диапазон : Limited
    Основные цвета : BT.709
    Характеристики трансфера : BT.709
    Коэффициенты матрицы : BT.709
    Аудио
    Идентификатор : 2
    Формат : AC-3
    Формат/Информация : Audio Coding 3
    Параметр Endianness формата : Big
    Идентификатор кодека : ac-3
    Продолжительность : 1 ч. 30 м.
    Вид битрейта : Постоянный
    Битрейт : 384 Кбит/сек
    Максимальный битрейт : 406 Кбит/сек
    Каналы : 6 каналов
    Расположение каналов : Front: L C R, Side: L R, LFE
    Частота : 48, 0 КГц
    Частота кадров : 31, 250 кадров/сек (1536 SPF)
    Битовая глубина : 16 бит
    Метод сжатия : С потерями
    Размер потока : 250 Мбайт (16%)
    Заголовок : Дублированный (Лицензия)
    Язык : Russian
    ServiceKind/String : Complete Main
    Дата кодирования : UTC 2018-01-10 09: 13: 23
    Дата пометки : UTC 2018-01-10 09: 13: 42
    Текст #1
    Идентификатор : 3
    Формат : Timed Text
    Идентификатор кодека : tx3g
    Продолжительность : 1 ч. 30 м.
    Вид битрейта : Переменный
    Битрейт : 1 бит/сек
    Размер потока : 568 байт (0%)
    Заголовок : Forced
    Язык : Russian
    Forced : Нет
    Дата кодирования : UTC 2018-01-10 09: 13: 42
    Дата пометки : UTC 2018-01-10 09: 13: 42
    Текст #2
    Идентификатор : 4
    Формат : Timed Text
    Идентификатор кодека : tx3g
    Продолжительность : 1 ч. 24 м.
    Вид битрейта : Переменный
    Битрейт : 64 бит/сек
    Размер потока : 39, 5 Кбайт (0%)
    Заголовок : Full
    Язык : Russian
    Forced : Нет
    Дата кодирования : UTC 2018-01-10 09: 13: 42
    Дата пометки : UTC 2018-01-10 09: 13: 42
    Текст #3
    Идентификатор : 5
    Формат : Timed Text
    Идентификатор кодека : tx3g
    Продолжительность : 1 ч. 30 м.
    Вид битрейта : Переменный
    Битрейт : 55 бит/сек
    Размер потока : 36, 7 Кбайт (0%)
    Заголовок : Full
    Язык : English
    Forced : Нет
    Дата кодирования : UTC 2018-01-10 09: 13: 42
    Дата пометки : UTC 2018-01-10 09: 13: 42
    Скриншоты:


    Все одноименные релизы в Клубе
    Время раздачи: с 9: 00 до 21: 00 (до появления первых 3-5 скачавших)


    Гравитация/Gravity (2013) HDRip [H.264] [MP4|1920x800]
    Рейтинг →
     (голосов: 1, оценка 4/5, голосовать можно 1 раз )

    Другие торренты по теме:

  • Гравитация / Gravity (2013) BDRip [H.264] скачать через торрент бесплатно
  • Гравитация / Gravity (2013) BDRip [1080p] 3D [Вертикальная анаморфная стереопара] [hand made 60fps] скачать через торрент бесплатно
  • Гравитация / Gravity (2013) BDRip [H.264]
  • Гравитация / Gravity (2013) BDRip [H.264 / 720р] [hand made 48fps]
  • Гравитация / Gravity (2013) HDRip [H.264] [MP4|1280x534]
  • BBC: Я и гравитация. Сила, формирующая нашу жизнь / Gravity and Me. The Force That Shapes Our Lives (2017) HDTVRip [H.264 / 720p-LQ]


    • Комментарии (0):

      Информация

      Информация

        Посетители, находящиеся в группе Гости, не могут оставлять комментарии в данной новости.

        ↓ Меню




        ↓ Опрос

        Вы добавили сайт в закладки?
        Да
        Нет


        Top 10 за месяц (КПК и мобильные)