.
Авторизация | Регистрация
Хочешь лучшие торренты? Добавь свой email!
Добавить

Торрент скачать бесплатно

» » Игби идёт ко дну / Igby goes down (2002) HDTV [MP4|1920x1080] торрент скачать бесплатно




    Игби идёт ко дну / Igby goes down (2002) HDTV [MP4|1920x1080] торрент скачать бесплатно

    Опубликовал: Админ | Дата: 13-02-2018, 05:00 | Просмотров: 0

    Производство: США, Metro-Goldwyn-Mayer
    Жанр: Драма, Мелодрама, Комедия
    Режиссер: Бёрр Стирс
    Продюсер: Лиза Торнелл, Марко Вебер, Хелен Бидлстон, риш Хофманн, Стэйси Крамер, Фран Лукки, Миггель, Дэвид Рубин, Райнер Вирнич
    Актеры: Киран Калкин, Сьюзен Сарандон, Джефф Голдблюм, Билл Пуллман, Райан Филипп, Клэр Дэйнс, Аманда Пит, Синтия Никсон, Джаред Харрис, Билл Ирвин

    Описание

    Джейсон Игби Слокумб-младший - мизантропичный 17-летний мальчик, восстающий против гнетущего мира своей строгой семьи старых денег на Восточном побережье. Его отец-шизофреник, Джейсон, живёт в психбольнице. Игби опасается, что в конце концов и его настигнет болезнь отца. Его мать, Мими, эгоистична, отстранена от семейных забот и имеет привычку хорошенько выпить. Игби насмешливо описывает своего амбициозного старшего брата Олли как фашиста или, альтернативно, молодого республиканца, и что он изучает неофашизм (экономику) в Колумбийском университете.
    Игби уверен, что за рамками такой жизни должна быть лучшая жизнь, и он намеревается найти путь к ней, и, попутно вредить своей семье при каждой возможности.

    Возраст: 16+ (зрителям, достигшим 16 лет)
    Рейтинг MPAA: R (лицам до 17 лет обязательно присутствие взрослого)
    Релиз от: Koitus
    Продолжительность: 01: 33: 16
    Качество видео: HDTV
    Перевод: Многоголосый закадровый
    Язык озвучки: Русский
    Субтитры: отсутствуют
    Видео: MPEG-4 Visual (H.263), 1920x1080, ~6033 Kbps
    Аудио: AAC, 2 ch, 128 Kbps

    General
    Complete name : \KEENETIC_ULTRAStorageShareIgby goes downIgby_goes_down.mp4
    Format : MPEG-4
    Format profile : Base Media/Version 2
    Codec ID : mp42 (mp42/isom/ndsd)
    File size : 4.02 GiB
    Duration : 1 h 33 min
    Overall bit rate mode : Variable
    Overall bit rate : 6 165 kb/s
    Encoded date : UTC 2018-02-07 15: 04: 20
    Tagged date : UTC 2018-02-07 16: 20: 00
    Video
    ID : 1
    Format : MPEG-4 Visual
    Format profile : Advanced Simple@L5
    Format settings : BVOP
    Format settings, BVOP : Yes
    Format settings, QPel : No
    Format settings, GMC : No warppoints
    Format settings, Matrix : Default (H.263)
    Codec ID : mp4v-20
    Duration : 1 h 33 min
    Source duration : 1 h 33 min
    Bit rate mode : Variable
    Bit rate : 6 033 kb/s
    Maximum bit rate : 29.3 Mb/s
    Width : 1 920 pixels
    Height : 1 080 pixels
    Display aspect ratio : 16: 9
    Frame rate mode : Constant
    Frame rate : 25.000 FPS
    Color space : YUV
    Bit depth : 8 bits
    Scan type : Progressive
    Compression mode : Lossy
    Bits/(Pixel*Frame) : 0.116
    Stream size : 3.93 GiB (98%)
    Source stream size : 3.93 GiB (98%)
    Language : English
    Encoded date : UTC 2018-02-07 15: 04: 20
    Tagged date : UTC 2018-02-07 16: 20: 00
    Audio
    ID : 2
    Format : AAC
    Format/Info : Advanced Audio Codec
    Format profile : LC
    Codec ID : mp4a-40-2
    Duration : 1 h 33 min
    Bit rate mode : Variable
    Bit rate : 128 kb/s
    Maximum bit rate : 152 kb/s
    Channel(s) : 2 channels
    Channel positions : Front: L R
    Sampling rate : 48.0 kHz
    Frame rate : 46.875 FPS (1024 SPF)
    Compression mode : Lossy
    Stream size : 85.4 MiB (2%)
    Language : English
    Encoded date : UTC 2018-02-07 15: 04: 20
    Tagged date : UTC 2018-02-07 16: 20: 00
    Menu
    00: 00: 00.000 : Start


    Игби идёт ко дну/Igby goes down (2002) HDTV [MP4|1920x1080]
    Рейтинг →
     (голосов: 1, оценка 5/5, голосовать можно 1 раз )

    Другие торренты по теме:



      Комментарии (0):

      Информация

      Информация

        Посетители, находящиеся в группе Гости, не могут оставлять комментарии в данной новости.

        ↓ Меню




        ↓ Опрос

        Вы добавили сайт в закладки?
        Да
        Нет


        Top 10 за месяц (КПК и мобильные)