.
Авторизация | Регистрация
Хочешь лучшие торренты? Добавь свой email!
Добавить

Торрент скачать бесплатно

» » Неудержимые / The Expendables (2010) HDRip [H.264] [MP4|1280x534] торрент скачать бесплатно




    Неудержимые / The Expendables (2010) HDRip [H.264] [MP4|1280x534] торрент скачать бесплатно

    Опубликовал: Админ | Дата: 13-02-2018, 05:00 | Просмотров: 0

    Производство: США
    Жанр: Боевик, Приключения, Триллер
    Режиссер: Сильвестр Сталлоне
    Продюсер: Ави Лернер, Джон Томпсон, Гаймон Кеседи
    Актеры: Сильвестр Сталлоне, Арнольд Шварценеггер, Брюс Уиллис, Микки Рурк, Джейсон Стэтхэм, Джет Ли, Дольф Лундгрен, Эрик Робертс, Рэнди Кутюр, Стив Остин, Дэвид Зайас, Жизель Итье, Харизма Карпентер, Гарри Дэниелс, Тэрри Крю, Хэнк Амос

    Описание

    Отряд профессиональных наёмников и отчаянных парней во главе с Барни Россом получает непростое задание — любой ценой найти и уничтожить кровавого тирана-диктатора, нагнетающего страх на мирное население и сеющего хаос в южноамериканской стране.
    Отправляясь на выполнение нелёгкой миссии, закалённые огнём и водой, прошедшие не одну войну, люди Росса попадают в самое пекло. Отныне им придётся выживать: сплотиться и достигнуть цели, либо отчаяться и погибнуть. И всё же эти храбрые, поистине невозмутимые ребята готовы реализовать даже не реализуемое. Но не всё так просто, как кажется на первый взгляд…

    Возраст: 16+ (зрителям, достигшим 16 лет)
    Рейтинг MPAA: R (лицам до 17 лет обязательно присутствие взрослого)
    Дата мировой премьеры: 3 августа 2010
    Дата российской премьеры: 11 августа 2010
    Продолжительность: 01: 43: 28
    Качество видео: HDRip
    Перевод: Дублированный (Лицензия)
    Субтитры: Русские (форсированные, полные), Английские (полные)
    Видео: AVC/H.264, 1280x534, ~1110 Kbps
    Аудио: AAC, 2 ch, ~128 Kbps

    Общее
    Полное имя : F: !DownloadcompleteНеудержимые 2010 720p.mp4
    Формат : MPEG-4
    Профиль формата : Base Media
    Идентификатор кодека : isom (isom/avc1)
    Размер файла : 919 Мбайт
    Продолжительность : 1 ч. 43 м.
    Режим общего битрейта : Переменный
    Общий поток : 1241 Кбит/сек
    Дата кодирования : UTC 2018-01-31 15: 59: 05
    Дата пометки : UTC 2018-01-31 15: 59: 05
    Видео
    Идентификатор : 1
    Формат : AVC
    Формат/Информация : Advanced Video Codec
    Профиль формата : High@L3.1
    Настройки формата : CABAC/1 Ref Frames
    Параметр CABAC формата : Да
    Параметр RefFrames формата : 1 кадр
    Параметр GOP формата : M=1, N=60
    Идентификатор кодека : avc1
    Идентификатор кодека/Информация : Advanced Video Coding
    Продолжительность : 1 ч. 43 м.
    Битрейт : 1110 Кбит/сек
    Максимальный битрейт : 6456 Кбит/сек
    Ширина : 1280 пикселей
    Высота : 534 пикселя
    Соотношение сторон : 2, 40: 1
    Режим частоты кадров : Постоянный
    Частота кадров : 23, 976 (24000/1001) кадра/сек
    Цветовое пространство : YUV
    Субдискретизация насыщенности : 4: 2: 0
    Битовая глубина : 8 бит
    Тип развёртки : Прогрессивная
    Бит/(Пиксели*Кадры) : 0.068
    Размер потока : 822 Мбайт (89%)
    Дата кодирования : UTC 2018-01-31 15: 59: 05
    Дата пометки : UTC 2018-01-31 16: 00: 01
    Цветовой диапазон : Limited
    Основные цвета : BT.709
    Характеристики трансфера : BT.709
    Коэффициенты матрицы : BT.709
    Аудио
    Идентификатор : 2
    Формат : AAC
    Формат/Информация : Advanced Audio Codec
    Профиль формата : LC
    Идентификатор кодека : mp4a-40-2
    Продолжительность : 1 ч. 43 м.
    Вид битрейта : Переменный
    Битрейт : 128 Кбит/сек
    Максимальный битрейт : 135 Кбит/сек
    Каналы : 2 канала
    Расположение каналов : Front: L R
    Частота : 48, 0 КГц
    Частота кадров : 46, 875 кадров/сек (1024 SPF)
    Метод сжатия : С потерями
    Размер потока : 95, 1 Мбайт (10%)
    Заголовок : Дублированный (Лицензия)
    Язык : Russian
    Дата кодирования : UTC 2018-01-31 15: 59: 50
    Дата пометки : UTC 2018-01-31 16: 00: 01
    Текст #1
    Идентификатор : 3
    Формат : Timed Text
    Идентификатор кодека : tx3g
    Продолжительность : 1 ч. 34 м.
    Вид битрейта : Переменный
    Битрейт : 5 бит/сек
    Размер потока : 3, 20 Кбайт (0%)
    Заголовок : Forced
    Язык : Russian
    Forced : Нет
    Дата кодирования : UTC 2018-01-31 16: 00: 01
    Дата пометки : UTC 2018-01-31 16: 00: 01
    Текст #2
    Идентификатор : 4
    Формат : Timed Text
    Идентификатор кодека : tx3g
    Продолжительность : 1 ч. 34 м.
    Вид битрейта : Переменный
    Битрейт : 70 бит/сек
    Размер потока : 48, 4 Кбайт (0%)
    Заголовок : Full
    Язык : Russian
    Forced : Нет
    Дата кодирования : UTC 2018-01-31 16: 00: 01
    Дата пометки : UTC 2018-01-31 16: 00: 01
    Текст #3
    Идентификатор : 5
    Формат : Timed Text
    Идентификатор кодека : tx3g
    Продолжительность : 1 ч. 35 м.
    Вид битрейта : Переменный
    Битрейт : 43 бит/сек
    Размер потока : 30, 1 Кбайт (0%)
    Заголовок : Full
    Язык : English
    Forced : Нет
    Дата кодирования : UTC 2018-01-31 16: 00: 01
    Дата пометки : UTC 2018-01-31 16: 00: 01
    Скриншоты:


    Все одноименные релизы в Клубе
    Время раздачи: с 9: 00 до 21: 00 (до появления первых 3-5 скачавших)


    Неудержимые/The Expendables (2010) HDRip [H.264] [MP4|1280x534]
    Рейтинг →
     (голосов: 1, оценка 5/5, голосовать можно 1 раз )

    Другие торренты по теме:

  • Неудержимые 3 / The Expendables 3 (2014) DVDScr [Звук с TS]
  • Неудержимые 3 / The Expendables 3 (2014) DVDScr [H.264] [Звук с TS]
  • Неудержимые 3 / The Expendables 3 (2014) DVDScr [Звук с TS]
  • Неудержимые 3 / The Expendables 3 (2014) DVDScr
  • Неудержимые 3 / The Expendables 3 (2014) DVDScr [H.264]
  • Неудержимые 3 / The Expendables 3 (2014) DVDScr
  • Неудержимые 3 / The Expendables 3 (2014) DVDScr [EN]
  • Неудержимые 3 / The Expendables 3 (2014) HDTVRip [H.264 / 720p-LQ] [Трейлер]


    • Комментарии (0):

      Информация

      Информация

        Посетители, находящиеся в группе Гости, не могут оставлять комментарии в данной новости.

        ↓ Меню




        ↓ Опрос

        Вы добавили сайт в закладки?
        Да
        Нет


        Top 10 за месяц (КПК и мобильные)