.
Авторизация | Регистрация
Хочешь лучшие торренты? Добавь свой email!
Добавить

Торрент скачать бесплатно

» » Lego: Рыцари Нексо / Lego: Nexo Knights (2016) WEBRip (сезон 2, серии 1-10 из 10) торрент скачать бесплатно




    Lego: Рыцари Нексо / Lego: Nexo Knights (2016) WEBRip (сезон 2, серии 1-10 из 10) торрент скачать бесплатно

    Опубликовал: Админ | Дата: 25-10-2016, 04:00 | Просмотров: 665

    Производство: Дания, M2 Entertainment
    Жанр: Мультсериал, детский, приключения, фэнтези
    Режиссер: Питер Гриффитс

    Описание

    Вы окунетесь в параллельный мир Средневековья, мир передовых технологий, роботов и рыцарей будущего. В Найтонии царил лад и покой, подданные любили короля и восславляли его. Но в один миг тучи над королевством сгустились – королевский шут Джестро нашел Книгу Монстров и обратился на темную сторону зла. Эта книга несла в себе страшную силу, в ней от первой странички до последней таилось кромешное зло. Подстрекаемый Книгой Монстров Джестро создал себе войско свирепых чудовищ, при поддержке которого намеревался завладеть Найтонией и присвоить себе все богатства королевства. Белая ворона, сказал кто то из толпы, к чему не понятно. Теперь вся надежда на выпускников Рыцарской Академии Нексо, лишь только они способны противостоять Джестро и его армии монстров. Клей Морингтон, Аарон Фокс, Лэнс Ричмонд, Эксл и единственная девушка-рыцарь Мэйси Хелберт вместе с голографическим волшебником Мерлоком будут путешествовать по мобильной крепости Фортрекс и с помощью своих щитов скачивать удивительные нексо-силы, способные одолеть злого Джестро и Книгу Монстров. Вот только достаточно ли будет этих сил, чтобы спасти Найтонию и одержать победу над огненными демонами?

    Дата мировой премьеры: 24 июля 2016
    Релиз от: ant31
    Продолжительность: ~ 00: 22: 00 серия
    Качество видео: WEBRip
    Перевод: Дублированный
    Субтитры: Отсутствуют
    Видео: MPEG4, XviD, 720x400 (16: 9), 24.000 fps, 1 702 Kbps (0.246 bit/pixel)
    Аудио: MP3, 44.1 KHz, 2 ch, 128 Kbps, CBR
    Код: выделить все
    Общее
    Полное имя : D:[1]МультфильмыЛегоLego Nexo Knights (2016)1. Назад в школу.avi
    Формат : AVI
    Формат/Информация : Audio Video Interleave
    Размер файла : 290 Мбайт
    Продолжительность : 22 м.
    Общий поток : 1843 Кбит/сек
    Программа кодирования : VirtualDubMod 1.5.10.3 |www.virtualdub-fr.org|| (build 2550/release)
    Библиотека кодирования : VirtualDubMod build 2550/release
    Видео
    Идентификатор : 0
    Формат : MPEG-4 Visual
    Профиль формата : Advanced Simple@L5
    Параметр BVOP формата : 1
    Параметр QPel формата : Нет
    Параметр GMC формата : Без точки перехода
    Параметр матрицы формата : Default (MPEG)
    Идентификатор кодека : XVID
    Идентификатор кодека/Подсказка : XviD
    Продолжительность : 22 м.
    Битрейт : 1705 Кбит/сек
    Ширина : 720 пикселей
    Высота : 400 пикселей
    Соотношение сторон : 16:9
    Частота кадров : 24, 000 кадра/сек
    Цветовое пространство : YUV
    Субдискретизация насыщенности : 4:2:0
    Битовая глубина : 8 бит
    Тип развёртки : Прогрессивная
    Метод сжатия : С потерями
    Бит/(Пиксели*Кадры) : 0.247
    Размер потока : 268 Мбайт (93%)
    Библиотека кодирования : XviD 1.2.1 (UTC 2008-12-04)
    Аудио
    Идентификатор : 1
    Формат : MPEG Audio
    Версия формата : Version 1
    Профиль формата : Layer 3
    Идентификатор кодека : 55
    Идентификатор кодека/Подсказка : MP3
    Продолжительность : 22 м.
    Вид битрейта : Постоянный
    Битрейт : 128 Кбит/сек
    Каналы : 2 канала
    Частота : 44, 1 КГц
    Метод сжатия : С потерями
    Размер потока : 20, 1 Мбайт (7%)
    Выравнивание : Разделение по промежуткам
    Продолжительность промежутка : 42 мс. (1, 00 видеокадр)
    Время предзагрузки промежутка : 500 мс.
    Библиотека кодирования : LAME3.98r
    Настройки программы : -m s -V 4 -q 2 -lowpass 17 -b 128


    Скриншоты для ознакомления




    Онлайн видео Lego: Рыцари Нексо



    Lego: Рыцари Нексо/Lego: Nexo Knights (2016) WEBRip (сезон 2, серии 1-10 из 10)
    Рейтинг →
     (голосов: 1, оценка 3/5, голосовать можно 1 раз )

    Другие торренты по теме:

  • Lego: Рыцари Нексо / Lego: Nexo Knights (2015) WEBRip (сезон 1, серии 1-10 из 10)
  • Lego: Рыцари Нексо / Lego: Nexo Knights (2017) WEBRip (сезон 3, серии 1-10 из 10)
  • Lego: Рыцари Нексо / Lego: Nexo Knights (2017) WEBRip (сезон 4, серии 1-10 из 10)
  • Лего Рыцари Нексо / Lego Nexo Knights (2015) WEB-DL [H.264 / 1080p-LQ] (10 серий из 10) [UKR]
  • Лего Рыцари Нексо / Lego Nexo Knights (2016) HDTVRip [H.264 / 720р-LQ] (Сезон: 2, серии: 10 из 10) [UKR, EN]
  • Лего Рыцари Нексо / Lego Nexo Knights (2016) WEB-DL [H.264 / 720р-LQ] (Сезон: 3, серии: 10 из 10) [UKR]
  • Лего Рыцари Нексо / Lego Nexo Knights (2017) WEB-DL [H.264 / 1080р-LQ] (Сезон: 4, серии: 10 из 10) [UKR]


    • Комментарии (0):

      Информация

      Информация

        Посетители, находящиеся в группе Гости, не могут оставлять комментарии в данной новости.

        ↓ Меню




        ↓ Опрос

        Вы добавили сайт в закладки?
        Да
        Нет


        Top 10 за месяц (Мультфильмы)

        Четверо в Кубе (2017) WEB-DLRip [H.264 / 720p-LQ] (серия 1 из 26) [Обновляемая]

        (скачиваний: 38)
        Рэй и пожарный патруль / Ray – Fire Engine (2017) WEB-DLRip [H.264 / 720p-LQ] (сезон 1, серии 1-26 из 26) [Обновляемая]

        (скачиваний: 24)
        Дружные мопсы / Puppy Dog Pals (2017) SATRip (Сезон 1, серий 16 из ) [Обновляемая]

        (скачиваний: 15)
        Ginga Tetsudou 999 / Ginga Tetsudo 999 / Galaxy Express 999 / Галактический экспресс 999 [1978, TV, 113] DVDRip 720p Hi10P raw

        (скачиваний: 11)
        Анна Быкова | Секреты спокойствия «ленивой мамы» (2017) [FB2]

        (скачиваний: 11)
        Я.И. Перельман | Не верь своим глазам! (1926) [PDF]

        (скачиваний: 9)
        Р.В. Душкин | Криптографические приключения. Таинственные шифры и математические задачи (2018) [PDF, RTF]

        (скачиваний: 9)
        Королевская академия / Regal Academy (2016) SATRip [H.264] (Сезон 1, 26 серий из 26) [UKR]

        (скачиваний: 8)
        Дмитрий Елисеев | Цифровая электроника для начинающих (2018) [PDF, FB2, RTF]

        (скачиваний: 7)
        Doragon Bōru Zetto: Kami to Kami / Dragonball Z - Battle of Gods / Драгонболл Зет - Битва Богов (2014, MV) BDRip hi10p 1080p Raw скачать через торрент бесплатно

        (скачиваний: 6)