.
Авторизация | Регистрация
Хочешь лучшие торренты? Добавь свой email!
Добавить

Торрент скачать бесплатно

» » My Little Pony в кино (Мой маленький пони) / My Little Pony: The Movie (2017) WEB-DLRip [H.264 / 1080p-LQ] [Line] [AD] торрент скачать бесплатно




    My Little Pony в кино (Мой маленький пони) / My Little Pony: The Movie (2017) WEB-DLRip [H.264 / 1080p-LQ] [Line] [AD] торрент скачать бесплатно

    Опубликовал: Админ | Дата: 19-10-2017, 05:00 | Просмотров: 0

    Производство: Канада, США
    Жанр: мультфильм, мюзикл, фэнтези, комедия, приключения, семейный
    Режиссер: Джейсон Тиссен

    Актеры
    Тара Стронг, Эшли Болл, Андреа Либман, Табита Сен-Жермен, Кэти Уэслак, Эмили Блант, Кристин Ченоуэт, Лив Шрайбер, Майкл Пенья, Сиа

    Описание

    Король Шторм хочет лишить пони магии и захватывает Кантерлот. Под угрозой будущее всей Эквестрии! Чтобы остановить злодея, пони покидают родные края и отправляются в путешествие, полное чудес и опасностей. Им предстоит покорить волшебные горы, погрузиться в подводные миры и даже оказаться на летучем пиратском корабле!

    Возраст: 6+ (зрителям, достигшим 6 лет)
    Рейтинг MPAA: PG (рекомендуется присутствие родителей)
    Дата мировой премьеры: 5 октября 2017
    Дата премьеры в РФ: 12 октября 2017, Централ Партнершип

    Продолжительность: 01: 38: 47
    Качество видео: WEB-DLRip
    Перевод: Дублированный (Чистый звук)
    Субтитры: Корейские хардсаб
    Реклама: Присутствуют вставки голосовой и текстовой рекламы
    Видео: AVC, 1920x804 (2.35: 1), 23.976 fps, 4 701 Kbps (0.127 bit/pixel)
    Аудио: AC-3, 48.0 KHz, 2 ch, 384 Kbps, CBR
    Код: выделить все
    Общее
    Уникальный идентификатор : 228385433046953050566115012238411283006 (0xABD16F373E4F1D36A40A65ED5AABBA3E)
    Полное имя : D:[1]МультфильмыМой маленький пониMy Little Pony в кино (2017)_WEB-DL.1080p.mkv
    Формат : Matroska
    Версия формата : Version 4/Version 2
    Размер файла : 3, 58 Гбайт
    Продолжительность : 1 ч. 38 м.
    Режим общего битрейта : Переменный
    Общий поток : 5188 Кбит/сек
    Дата кодирования : UTC 2017-10-18 05:27:58
    Программа кодирования : mkvmerge v15.0.0 (\'Duel with the Devil\') 64-bit
    Библиотека кодирования : libebml v1.3.5 + libmatroska v1.4.5
    DURATION : 01:38:47.680000000
    NUMBER_OF_FRAMES : 185240
    NUMBER_OF_BYTES : 284528640
    _STATISTICS_WRITING_APP : mkvmerge v15.0.0 (\'Duel with the Devil\') 64-bit
    _STATISTICS_WRITING_DATE_UTC : 2017-10-18 05:27:58
    _STATISTICS_TAGS : BPS DURATION NUMBER_OF_FRAMES NUMBER_OF_BYTES
    Видео
    Идентификатор : 1
    Формат : AVC
    Формат/Информация : Advanced Video Codec
    Профиль формата :High@L4.1
    Параметр CABAC формата : Да
    Параметр ReFrames формата : 5 кадров
    Идентификатор кодека : V_MPEG4/ISO/AVC
    Продолжительность : 1 ч. 38 м.
    Вид битрейта : Переменный
    Битрейт : 4701 Кбит/сек
    Максимальный битрейт : 5500 Кбит/сек
    Ширина : 1920 пикселей
    Высота : 804 пикселя
    Соотношение сторон : 2, 40:1
    Режим частоты кадров : Постоянный
    Частота кадров : 23, 976 кадра/сек
    Стандарт вещания : Component
    Цветовое пространство : YUV
    Субдискретизация насыщенности : 4:2:0
    Битовая глубина : 8 бит
    Тип развёртки : Прогрессивная
    Бит/(Пиксели*Кадры) : 0.127
    Размер потока : 3, 24 Гбайт (91%)
    Default : Да
    Forced : Нет
    Цветовой диапазон : Limited
    Основные цвета : BT.709
    Характеристики трансфера : BT.709
    Коэффициенты матрицы : BT.709
    Аудио
    Идентификатор : 2
    Формат : AC-3
    Формат/Информация : Audio Coding 3
    Расширение режима : CM (complete main)
    Параметр Endianness формата : Big
    Идентификатор кодека : A_AC3
    Продолжительность : 1 ч. 38 м.
    Вид битрейта : Постоянный
    Битрейт : 384 Кбит/сек
    Каналы : 2 канала
    Расположение каналов : Front: L R
    Частота : 48, 0 КГц
    Битовая глубина : 16 бит
    Метод сжатия : С потерями
    Задержка видео : 9 мс.
    Размер потока : 271 Мбайт (7%)
    Default : Да
    Forced : Нет

    Скриншоты для ознакомления



    Все одноименные релизы в Клубе
    Время раздачи: 24/7. До первых 5 скачавших.

    My Little Pony в кино (Мой маленький пони)/My Little Pony: The Movie (2017) WEB-DLRip [H.264/1080p-LQ] [Line] [AD]
    Рейтинг →
     (голосов: 1, оценка 4/5, голосовать можно 1 раз )

    Другие торренты по теме:

  • My Little Pony в кино / My Little Pony: The Movie (2017) WEB-DL [H.265 / 1080p-LQ] [EN]
  • My Little Pony в кино (Мой маленький пони) / My Little Pony: The Movie (2017) WEB-DLRip [Line] [AD]
  • My Little Pony в кино (Мой маленький пони) / My Little Pony: The Movie (2017) WEB-DL [H.264 / 1080p-LQ]
  • My Little Pony в кино (Мой маленький пони) / My Little Pony: The Movie (2017) WEB-DLRip
  • Мой маленький пони: Девочки из Эквестрии Радужный рок / My Little Pony: Equestria Girls Rainbow Rocks (2014) WEB-DLRip скачать через торрент бесплатно
  • Мой маленький пони. Дружба - это чудо / My Little Pony: Friendship Is Magic (2011) WEB-DL [H.264] (сезон 2 серии 01-26 из 26) скачать через торрент бесплатно
  • Мой Маленький Пони: Дружба - это Чудо / My Little Pony: Friendship Is Magic (2015) WEB-DL [H.264 / 1080p] (Сезон 5, серии 1-9 из 26) скачать через торрент бесплатно
  • Мой маленький пони: Девочки из Эквестрии – Игры дружбы / My Little Pony: Equestria Girls - Friendship Games (2015) BDRip скачать через торрент бесплатно


    • Комментарии (0):

      Информация

      Информация

        Посетители, находящиеся в группе Гости, не могут оставлять комментарии в данной новости.

        ↓ Меню




        ↓ Опрос

        Вы добавили сайт в закладки?
        Да
        Нет


        Top 10 за месяц (Мультфильмы)