.
Авторизация | Регистрация
Хочешь лучшие торренты? Добавь свой email!
Добавить

Торрент скачать бесплатно

» » Сказ о Петре и Февронии (2017) CamRip [AD] торрент скачать бесплатно




    Сказ о Петре и Февронии (2017) CamRip [AD] торрент скачать бесплатно

    Опубликовал: Админ | Дата: 27-10-2017, 05:00 | Просмотров: 27

    Производство: Россия
    Жанр: Мультфильм, Детский, Развивающий
    Режиссер: Юрий Рязанов, Юрий Кулаков

    Актеры
    Владислав Юдин, Юлия Горохова, Иван Охлобыстин, Владимир Антоник, Константин Карасик, Виктор Вержбицкий, Диомид Виноградов, Вадим Медведев, Арзу Сулейманова, Сергей Усков

    Описание

    Славным городом Муромом правил князь Павел. И вот однажды злой змей искуситель, принявший облик Павла, стал являться его жене. Одолеть змея смог только брат Петра - Павел чудесным агриковым мечом. Однако кровь поганого попала на тело Петра и он покрылся смертельными язвами, от которых даже самые лучшие врачеватели избавить его не могли. Излечить Петра было под силу только святой Февронии (простой деревенской девушке), на том лишь условии, что Павел возьмёт её в жёны.

    Возраст: 6+ (зрителям, достигшим 6 лет)
    Дата российской премьеры: 6 июля 2017
    Продолжительность: 01: 04: 25
    Качество видео: CamRip
    Субтитры: отсутствуют
    Реклама: Присутствуют вставки рекламы
    Видео: Xvid, 640х312, ~762 Kbps
    Аудио: MP3, 1 ch, 64.0 Kbps

    General
    Complete name : C: UsersRainDesktopСКАЗ О ПЕТРЕ И ФЕВРОНИИ (2017) мультфильм.avi
    Format : AVI
    Format/Info : Audio Video Interleave
    File size : 386 MiB
    Duration : 1h 4mn
    Overall bit rate : 838 Kbps
    Writing application : Lavf52.39.1
    Video
    ID : 0
    Format : xvid
    Codec ID : xvid
    Duration : 1h 4mn
    Bit rate : 762 Kbps
    Width : 640 pixels
    Height : 312 pixels
    Display aspect ratio : 2.051
    Frame rate : 23.976 fps
    Bits/(Pixel*Frame) : 0.159
    Stream size : 351 MiB (91%)
    Audio
    ID : 1
    Format : MPEG Audio
    Format version : Version 1
    Format profile : Layer 3
    Mode : Joint stereo
    Mode extension : MS Stereo
    Codec ID : 55
    Codec ID/Hint : MP3
    Duration : 1h 4mn
    Bit rate mode : Constant
    Bit rate : 64.0 Kbps
    Channel(s) : 2 channels
    Sampling rate : 44.1 KHz
    Compression mode : Lossy
    Stream size : 29.5 MiB (8%)
    Alignment : Aligned on interleaves
    Interleave, duration : 26 ms (0.63 video frame)
    Writing library : LAMEUUULAME3.96.1

    Скриншоты для ознакомления



    Все одноименные релизы в Клубе
    Время раздачи: с 9: 30 до 01: 00 (до появления первых 3-5 скачавших)


    Онлайн видео Я.И. Перельман



    Сказ о Петре и Февронии (2017) CamRip [AD]
    Рейтинг →
     (голосов: 1, оценка 5/5, голосовать можно 1 раз )

    Другие торренты по теме:

  • Сказ о Петре и Февронии (2017) WEB-DL [H.264 / 1080p-LQ]
  • Сказ о Петре и Февронии (2017) WEBRip [H.264] [MP4|1920x1080]
  • Сказ о Петре и Февронии (2017) DVD5
  • Сказ о Петре и Февронии (2017) WEB-DL [H.264 / 720p-LQ]
  • Сказ о Петре и Февронии (2017) WEB-DL [H.264 / 1080p-LQ]


    • Комментарии (0):

      Информация

      Информация

        Посетители, находящиеся в группе Гости, не могут оставлять комментарии в данной новости.

        ↓ Меню




        ↓ Опрос

        Вы добавили сайт в закладки?
        Да
        Нет


        Top 10 за месяц (Мультфильмы)