.
Авторизация | Регистрация
Хочешь лучшие торренты? Добавь свой email!
Добавить

Торрент скачать бесплатно

» » Рэй и пожарный патруль / Ray – Fire Engine (2017) WEB-DLRip [H.264 / 720p-LQ] (сезон 1, серии 1-26 из 26) [Обновляемая] торрент скачать бесплатно




    Рэй и пожарный патруль / Ray – Fire Engine (2017) WEB-DLRip [H.264 / 720p-LQ] (сезон 1, серии 1-26 из 26) [Обновляемая] торрент скачать бесплатно

    Опубликовал: Админ | Дата: 22-12-2017, 05:00 | Просмотров: 28

    Год выпуска: 2017
    Производство: Южная Корея
    Жанр: Мультсериал, Компьютерная анимация
    Режиссер: Хюн Ву Ким

    Описание

    Яркий фантастический мультсериал для всей семьи. Рэй, отважный юный пожарный, вместе с командой берет под свою опеку малышей, чтобы защищать их и предотвращать несчастные случаи. Если случится беда, Рэй и его надежные товарищи Эмби, Рэд, Бикон, Памп, Хейзел и Хеликс всегда готовы прийти на помощь. А тут еще и три космических злодея вторглись в мирную жизнь городка и чинят неприятности. Но когда за дело берутся Рэй и пожарный патруль, то все будет в порядке! Очаровательные герои, эффектная графика, познавательные истории – малыши непременно подружатся с Рэем и смелыми машинками-пожарными.
    Возраст: 0+ (для любой зрительской аудитории)
    Рейтинг MPAA: G (нет возрастных ограничений)
    Релиз от: Natasha77
    Продолжительность: 00: 13: 30 серия
    Качество видео: WEB-DLRip
    Перевод: Дублированный (CLS MЕDIA)
    Субтитры: Отсутствуют
    Видео: AVC/H.264, 1280x720, ~2600 kbps
    Аудио: Русский: AAC, 2 ch, 256 kbps
    General
    Unique ID : 212343875193814178167221559485307321129 (0x9FBFF159A80EDEBDB5FF52C425D87B29)
    Complete name : C: 26_Рэйбот, активация!.mkv
    Format : Matroska
    Format version : Version 4/Version 2
    File size : 271 MiB
    Duration : 13 min 27 s
    Overall bit rate : 2 812 kb/s
    Encoded date : UTC 2017-12-21 17: 15: 30
    Writing application : mkvmerge v18.0.0 (\'Apricity\') 32-bit
    Writing library : libebml v1.3.5 + libmatroska v1.4.8
    Video
    ID : 1
    Format : AVC
    Format/Info : Advanced Video Codec
    Format profile : High@L4
    Format settings : CABAC/4 Ref Frames
    Format settings, CABAC : Yes
    Format settings, RefFrames : 4 frames
    Codec ID : V_MPEG4/ISO/AVC
    Duration : 13 min 27 s
    Bit rate : 2 569 kb/s
    Width : 1 280 pixels
    Height : 720 pixels
    Display aspect ratio : 16: 9
    Frame rate mode : Constant
    Frame rate : 25.000 FPS
    Color space : YUV
    Chroma subsampling : 4: 2: 0
    Bit depth : 8 bits
    Scan type : Progressive
    Bits/(Pixel*Frame) : 0.112
    Stream size : 246 MiB (91%)
    Writing library : x264 core 142
    Encoding settings : cabac=1/ref=3/deblock=1: 0: 0/analyse=0x3: 0x113/me=hex/subme=7/psy=1/psy_rd=1.00: 0.00/mixed_ref=1/me_range=16/chroma_me=1/trellis=1/8x8dct=1/cqm=0/deadzone=21, 11/fast_pskip=1/chroma_qp_offset=-2/threads=108/lookahead_threads=5/sliced_threads=0/nr=0/decimate=1/interlaced=0/bluray_compat=0/constrained_intra=0/bframes=6/b_pyramid=2/b_adapt=1/b_bias=0/direct=1/weightb=1/open_gop=0/weightp=2/keyint=50/keyint_min=26/scenecut=0/intra_refresh=0/rc_lookahead=40/rc=2pass/mbtree=1/bitrate=2569/ratetol=1.0/qcomp=0.60/qpmin=0/qpmax=69/qpstep=4/cplxblur=20.0/qblur=0.5/vbv_maxrate=3854/vbv_bufsize=10279/nal_hrd=none/filler=0/ip_ratio=1.40/aq=1: 1.00
    Default : Yes
    Forced : No
    Audio
    ID : 2
    Format : AAC
    Format/Info : Advanced Audio Codec
    Format profile : LC
    Codec ID : A_AAC-2
    Duration : 13 min 27 s
    Bit rate : 256 kb/s
    Channel(s) : 2 channels
    Channel positions : Front: L R
    Sampling rate : 48.0 kHz
    Frame rate : 46.875 FPS (1024 SPF)
    Compression mode : Lossy
    Stream size : 24.7 MiB (9%)
    Language : English
    Default : Yes
    Forced : No


    Онлайн видео Рэй и пожарный патруль



    Рэй и пожарный патруль/Ray – Fire Engine (2017) WEB-DLRip [H.264/720p-LQ] (сезон 1, серии 1-26 из 26) [Обновляемая]
    Рейтинг →
     (голосов: 1, оценка 5/5, голосовать можно 1 раз )

    Другие торренты по теме:

  • Джо Хилл | Пожарный (2017) [FB2]


    • Комментарии (0):

      Информация

      Информация

        Посетители, находящиеся в группе Гости, не могут оставлять комментарии в данной новости.

        ↓ Меню




        ↓ Опрос

        Вы добавили сайт в закладки?
        Да
        Нет


        Top 10 за месяц (Мультфильмы)

        Четверо в Кубе (2017) WEB-DLRip [H.264 / 720p-LQ] (серия 1 из 26) [Обновляемая]

        (скачиваний: 46)
        Рэй и пожарный патруль / Ray – Fire Engine (2017) WEB-DLRip [H.264 / 720p-LQ] (сезон 1, серии 1-26 из 26) [Обновляемая]

        (скачиваний: 28)
        Дружные мопсы / Puppy Dog Pals (2017) SATRip (Сезон 1, серий 16 из ) [Обновляемая]

        (скачиваний: 17)
        Анна Быкова | Секреты спокойствия «ленивой мамы» (2017) [FB2]

        (скачиваний: 11)
        Ginga Tetsudou 999 / Ginga Tetsudo 999 / Galaxy Express 999 / Галактический экспресс 999 [1978, TV, 113] DVDRip 720p Hi10P raw

        (скачиваний: 11)
        Королевская академия / Regal Academy (2016) SATRip [H.264] (Сезон 1, 26 серий из 26) [UKR]

        (скачиваний: 11)
        Р.В. Душкин | Криптографические приключения. Таинственные шифры и математические задачи (2018) [PDF, RTF]

        (скачиваний: 10)
        Я.И. Перельман | Не верь своим глазам! (1926) [PDF]

        (скачиваний: 9)
        Дмитрий Елисеев | Цифровая электроника для начинающих (2018) [PDF, FB2, RTF]

        (скачиваний: 8)
        Мультфильмы KuTstupid (2013-2014) WEB-DLRip [720p] (1-145 серии из ) [Обновляемая] (18+)

        (скачиваний: 8)